Skip to content

The Sound of Jazz (2015) Blu-ray 1080i MPEG-2 DD 2.0

Title: The Sound of Jazz
Release Date: 2015
Genre: Jazz, Bop, Hard Bop, Avant-Garde Jazz, Cool, Dixieland, Folk Jazz, Mainstream Jazz, Post-Bop, Vocal Jazz, West Coast Jazz
Director: Jack Smight
Artist: [1-10] The Sound Of Jazz  (1957): Henry “Red” Allen, Count Basie, Roy Eldridge, Jimmy Giuffre; Coleman Hawkins, Billie Holiday, Thelonious Monk, Gerry Mulligan, Ben Webster, Lester Young; [11-14] Jazz From Studio 61 (1959): Ahmad Jamal Trio, Ben Webster-Buck Clayton Quintet; [15-17] Jamin’ The Blues (1944): Lester Young, Harry Sweet Edison, Illinois Jacquet, Among Others; [18] Stage Entrance Tv Show (1952): Charlie Parket, Dizzy Gillespie; [19-22] The Sound Of Miles Davis (1959): Miles Davis, John Coltrane, Wynton Kelly, Paul Chambers, Jimmy Cobb, The Gil Evans Orchestra

Production/Label: Think Visual
Duration: 02:44:11
Quality: Blu-ray
Container: BDMV
Video codec: MPEG-2
Audio codec: AC-3
Video: MPEG-2 21999 kbps / 1920*1080i / 25 fps / 16:9
Audio: English Dolby Digital 2.0 / 48 kHz / 192 kbps

This Blu-ray disc compiles some of the finest classic jazz performances ever filmed. The Sound of Jazz was a 1957 CBS TV show which reunited some of the genre’s greatest stars for a one-hour performance that was presented as performed, with no editing. It was a true live-TV experience which produced some of the most moving jazz scenes ever filmed, among them the final meeting of Billie Holiday and Lester Young. The show also produced a studio album by the same title, which is added in its entirety as a bonus on this package. CBS would repeat its success in 1959 with yet another show, this time featuring Miles Davis, Ahmad Jamal and Ben Webster on different sets. Davis is heard both in a quintet format (with John Coltrane on tenor sax) and with the Gil Evans orchestra. Also included here are Gjon Mili’s classic 1944 short film Jammin’ The Blues, one of the very rare movies showcasing Lester Young, and the only existing footage of Charlie Parker on live TV.

This is the highly praised 1957 CBS-TV telecast that brought together Lester Young, Coleman Hawkins, Count Basie, Billie Holiday and other greats into the living rooms of America for the first time. Not only was the show — originally telecast as an episode of CBS’s Seven Lively Arts series — a massive critical and popular success, the music still sounds every bit as exciting as it seemed on that original broadcast. Kicking off with two tracks from the Red Allen All Stars, the set moves onto Billie Holiday’s smoky rendition of “Fine and Mellow,” which features fine solo work from Prez, Webster, Doc Cheatham, Hawk, and Vic Dickenson. The show also brought together such odd combinations as old fig Pee Wee Russell and bopper Jimmy Giuffre dueting on clarinet, backed only Danny Baker’s acoustic guitar and Jo Jones’ in-the-pocket drumming. Giuffre appears later with his regular trio of Jim Hall on guitar and Jim Atlas on bass doing “The Train and the River,” while pianist Mal Waldron solos on “Nervous.” The capper of the set is two tracks from the Count Basie All-Stars featuring alumni like Prez, Jimmy Rushing, Jo Jones, and Freddy Green, augmented by such luminaries as Hawk, Dickenson, Harry Carney, Roy Eldridge, Dickie Wells, and Doc Cheatham. Mixed in true stereo, this is one feast for the ears and, for many, jazz’s greatest moment on the tube. –AllMusic Review by Cub Koda

Tracklist:
01 Open All Night / Blues
02 The Count Blues
03 Wild Man Blues
04 Rosetta
05 Dickie’s Dream
06 Blue Monk
07 I Left My Baby
08 Fine And Mellow
09 The Train And The River
10 Blues My Naughty Sweetie Gives To Me
11 Darn That Dream
12 Ahmad’s Blues
13 Chelsea Bridge
14 Duke’s Place
15 The Midnight Symphony
16 On The Sunny Side Of The Street
17 Jammin’ The Blues
18 Hot House
19 So What
20 The Duke
21 Blues For Pablo
22 New Rhumba
Bonus Audio:
• The Sound of Jazz [Studio Album]

DISC INFO:

Disc Title:     The Sound of Jazz.2015.BD1080i
Disc Size:      24 479 101 076 bytes
Protection:     AACS
BD-Java:        No
Extras:         50Hz Content
BDInfo:         0.5.8

PLAYLIST REPORT:

Name:                   00017.MPLS
Length:                 0:54:22.440 (h:m:s.ms)
Size:                   9 489 481 728 bytes
Total Bitrate:          23,27 Mbps

VIDEO:

Codec                   Bitrate             Description     
-----                   -------             -----------     
MPEG-2 Video            21999 kbps          1080i / 25 fps / 16:9

AUDIO:

Codec                           Language        Bitrate         Description     
-----                           --------        -------         -----------     
Dolby Digital Audio             English         192 kbps        2.0 / 48 kHz / 192 kbps

FILES:

Name            Time In         Length          Size            Total Bitrate   
----            -------         ------          ----            -------------   
00028.M2TS      0:00:00.000     0:54:22.440     9 489 481 728   23 270

PLAYLIST REPORT:

Name:                   00019.MPLS
Length:                 0:25:17.000 (h:m:s.ms)
Size:                   5 006 032 896 bytes
Total Bitrate:          26.40 Mbps

VIDEO:

Codec                   Bitrate             Description     
-----                   -------             -----------     
MPEG-2 Video            24998 kbps          1080i / 25 fps / 16:9

AUDIO:

Codec                           Language        Bitrate         Description     
-----                           --------        -------         -----------     
Dolby Digital Audio             English         192 kbps        2.0 / 48 kHz / 192 kbps

FILES:

Name            Time In         Length          Size            Total Bitrate   
----            -------         ------          ----            -------------   
00031.M2TS      0:00:00.000     0:25:17.000     5 006 032 896   26 400

PLAYLIST REPORT:

Name:                   00013.MPLS
Length:                 0:18:02.920 (h:m:s.ms)
Size:                   3 573 547 008 bytes
Total Bitrate:          26.40 Mbps

VIDEO:

Codec                   Bitrate             Description     
-----                   -------             -----------     
MPEG-2 Video            24998 kbps          1080i / 25 fps / 16:9

AUDIO:

Codec                           Language        Bitrate         Description     
-----                           --------        -------         -----------     
Dolby Digital Audio             English         192 kbps        2.0 / 48 kHz / 192 kbps

FILES:

Name            Time In         Length          Size            Total Bitrate   
----            -------         ------          ----            -------------   
00022.M2TS      0:00:00.000     0:18:02.920     3 573 547 008   26 399

PLAYLIST REPORT:

Name:                   00011.MPLS
Length:                 0:10:13.400 (h:m:s.ms)
Size:                   2 024 079 360 bytes
Total Bitrate:          26.40 Mbps

VIDEO:

Codec                   Bitrate             Description     
-----                   -------             -----------     
MPEG-2 Video            24996 kbps          1080i / 25 fps / 16:9

AUDIO:

Codec                           Language        Bitrate         Description     
-----                           --------        -------         -----------     
Dolby Digital Audio             English         192 kbps        2.0 / 48 kHz / 192 kbps

FILES:

Name            Time In         Length          Size            Total Bitrate   
----            -------         ------          ----            -------------   
00019.M2TS      0:00:00.000     0:10:13.400     2 024 079 360   26 398

PLAYLIST REPORT:

Name:                   00015.MPLS
Length:                 0:05:27.919 (h:m:s.ms)
Size:                   1 081 933 824 bytes
Total Bitrate:          26.40 Mbps

VIDEO:

Codec                   Bitrate             Description     
-----                   -------             -----------     
MPEG-2 Video            24993 kbps          1080i / 25 fps / 16:9

AUDIO:

Codec                           Language        Bitrate         Description     
-----                           --------        -------         -----------     
Dolby Digital Audio             English         192 kbps        2.0 / 48 kHz / 192 kbps

FILES:

Name            Time In         Length          Size            Total Bitrate   
----            -------         ------          ----            -------------   
00025.M2TS      0:00:00.000     0:05:27.919     1 081 933 824   26 395

Download:

http://subyshare.com/6063brq8ypfo/The.Sound.of.Jazz.2015.part01.rar.html
http://subyshare.com/gyf176mred0m/The.Sound.of.Jazz.2015.part02.rar.html
http://subyshare.com/dk4bduwfk379/The.Sound.of.Jazz.2015.part03.rar.html
http://subyshare.com/huo3lyzezf9u/The.Sound.of.Jazz.2015.part04.rar.html
http://subyshare.com/j4vck30j2ili/The.Sound.of.Jazz.2015.part05.rar.html
http://subyshare.com/cw5imbkkmuta/The.Sound.of.Jazz.2015.part06.rar.html
http://subyshare.com/1wzr54t6p06g/The.Sound.of.Jazz.2015.part07.rar.html
http://subyshare.com/tv37eu3d92mg/The.Sound.of.Jazz.2015.part08.rar.html
http://subyshare.com/12c916yazpsp/The.Sound.of.Jazz.2015.part09.rar.html
http://subyshare.com/i4737exlbv27/The.Sound.of.Jazz.2015.part10.rar.html
http://subyshare.com/3kj1pmvomkyg/The.Sound.of.Jazz.2015.part11.rar.html
http://subyshare.com/e1xr2xsofrh0/The.Sound.of.Jazz.2015.part12.rar.html
http://subyshare.com/skl1ucdi25si/The.Sound.of.Jazz.2015.part13.rar.html
http://subyshare.com/wqddvdkedq2x/The.Sound.of.Jazz.2015.part14.rar.html
http://subyshare.com/48bopu7eyius/The.Sound.of.Jazz.2015.part15.rar.html
http://subyshare.com/3bkc6eo4pv41/The.Sound.of.Jazz.2015.part16.rar.html

or

http://uploaded.net/file/vq8gu1mn/The.Sound.of.Jazz.2015.part01.rar
http://uploaded.net/file/37wx93db/The.Sound.of.Jazz.2015.part02.rar
http://uploaded.net/file/iw8su2s7/The.Sound.of.Jazz.2015.part03.rar
http://uploaded.net/file/vnshwz3p/The.Sound.of.Jazz.2015.part04.rar
http://uploaded.net/file/30e55rnz/The.Sound.of.Jazz.2015.part05.rar
http://uploaded.net/file/lr4jpsdi/The.Sound.of.Jazz.2015.part06.rar
http://uploaded.net/file/ggile3n2/The.Sound.of.Jazz.2015.part07.rar
http://uploaded.net/file/uwy78ofa/The.Sound.of.Jazz.2015.part08.rar
http://uploaded.net/file/w33jkhfl/The.Sound.of.Jazz.2015.part09.rar
http://uploaded.net/file/o7p8c4h9/The.Sound.of.Jazz.2015.part10.rar
http://uploaded.net/file/xp5w7yhx/The.Sound.of.Jazz.2015.part11.rar
http://uploaded.net/file/o0b1fqm3/The.Sound.of.Jazz.2015.part12.rar
http://uploaded.net/file/zypn56qo/The.Sound.of.Jazz.2015.part13.rar
http://uploaded.net/file/zzx7yuxc/The.Sound.of.Jazz.2015.part14.rar
http://uploaded.net/file/54tf8pa9/The.Sound.of.Jazz.2015.part15.rar
http://uploaded.net/file/aey91awa/The.Sound.of.Jazz.2015.part16.rar

BDRip 720p+1080p

http://www.hdmusic.me/the-sound-of-jazz-1957-2015-720p1080p-mbluray-x264-fkkhd/

%d bloggers like this: