Skip to content

The Morricone Duel – The Most Dangerous Concert Ever (2018) Blu-ray 1080i AVC DTS-HD 5.1 + BDRip 720p/1080p

Title: The Morricone Duel – The Most Dangerous Concert Ever
Release Date: 2018
Genre: Soundtrack

Production/Label: EuroArts
Duration: 01:10:38
Quality: Blu-ray
Container: BDMV
Video codec: MPEG-4 AVC Video
Audio codec: PCM, DTS-HD
Video: MPEG-4 AVC Video / 29561 kbps / 1080i / 29,970 fps / 16:9 / High Profile 4.1
Audio 1: LPCM Audio / 2.0 / 48 kHz / 2304 kbps / 24-bit
Audio 2: DTS-HD Master Audio / 5.1 / 48 kHz / 4248 kbps / 24-bit (DTS Core: 5.1 / 48 kHz / 1509 kbps / 24-bit)
Size: 19,05 GB

The Wild West meets the soulful sound of Italy. Fearless New York gangsters meet cowboys from the dusty prairie. Godfather meets Taxi Driver. And the magic of cinema meets the rich sound of a first-class symphony orchestra. This exclusive live concert production presents a unique selection of movie classics – from Sergio Leone’s iconic Spaghetti Westerns to modern mafia masterpieces by Francis Ford Coppola and the cult movies of Tarantino. The Danish National Symphony Orchestra is conducted by Sarah Hicks and joined by a fistful of strong guest artists for this premiere performance of the authentic soundtracks by composer legends Ennio Morricone, Nino Rota, Sonny Bono and Bernard Herrmann.

Tuva Semmingsen mezzo-soprano | Hans Ulrik saxophone | Christine Nonbo Andersen soprano | Mads Kjølby guitars
Danish National Symphony Orchestra
Sarah Hicks

With Film Music by
Ennio Morricone: The Big Gundown
Ennio Morricone: Inglourious Basterds
Ennio Morricone: A Fistful of Dollars
Ennio Morricone: The Hateful Eight
Ennio Morricone: Once Upon a Time in the West
Ennio Morricone: The Untouchables
Ennio Morricone: The Good, the Bad and the Ugly
Ennio Morricone: Once Upon a Time in America
Ennio Morricone: The Sicilian Clan
Ennio Morricone: For a Few Dollars More
Bernard Herrmann: Taxi Driver
Sonny Bono: Kill Bill
Nino Rota: The Godfather

pic pic pic pic pic pic pic pic pic pic pic pic pic pic pic pic pic pic pic pic

DISC INFO:

Disc Title:     The Morricone Duel - The Most Dangerous Concert Ever 2018 (Blu-ray)
Disc Size:      20 454 983 958 bytes
Protection:     AACS
BD-Java:        No
BDInfo:         0.5.8

PLAYLIST REPORT:

Name:                   00000.MPLS
Length:                 1:10:38.767 (h:m:s.ms)
Size:                   20 160 043 008 bytes
Total Bitrate:          38,05 Mbps

VIDEO:

Codec                   Bitrate             Description
-----                   -------             -----------
MPEG-4 AVC Video        29561 kbps          1080i / 29,970 fps / 16:9 / High Profile 4.1

AUDIO:

Codec                           Language        Bitrate         Description
-----                           --------        -------         -----------
LPCM Audio                      Undetermined    2304 kbps       2.0 / 48 kHz / 2304 kbps / 24-bit
DTS-HD Master Audio             Undetermined    4248 kbps       5.1 / 48 kHz / 4248 kbps / 24-bit (DTS Core: 5.1 / 48 kHz / 1509 kbps / 24-bit)

FILES:

Name            Time In         Length          Size            Total Bitrate
----            -------         ------          ----            -------------
00000.M2TS      0:00:00.000     1:10:30.392     20 157 935 616  38 120
00008.M2TS      1:10:30.392     0:00:08.041     2 095 104       2 084
00007.M2TS      1:10:38.434     0:00:00.333     12 288          295

Blu-ray ISO

https://subyshare.com/1m4xrl1gh095/The.Morricone.Duel.The.Most.Dangerous.Concert.Ever.2018.COMPLETE.MBLURAY-MIDDLE.part01.rar.html
https://subyshare.com/y2w1m1f5o8wc/The.Morricone.Duel.The.Most.Dangerous.Concert.Ever.2018.COMPLETE.MBLURAY-MIDDLE.part02.rar.html
https://subyshare.com/ne0y11xbf9u2/The.Morricone.Duel.The.Most.Dangerous.Concert.Ever.2018.COMPLETE.MBLURAY-MIDDLE.part03.rar.html
https://subyshare.com/n5ovym4jxypw/The.Morricone.Duel.The.Most.Dangerous.Concert.Ever.2018.COMPLETE.MBLURAY-MIDDLE.part04.rar.html
https://subyshare.com/2qvgu7une2ws/The.Morricone.Duel.The.Most.Dangerous.Concert.Ever.2018.COMPLETE.MBLURAY-MIDDLE.part05.rar.html
https://subyshare.com/qiomf9ldhj2c/The.Morricone.Duel.The.Most.Dangerous.Concert.Ever.2018.COMPLETE.MBLURAY-MIDDLE.part06.rar.html
https://subyshare.com/267wvzvrkg3x/The.Morricone.Duel.The.Most.Dangerous.Concert.Ever.2018.COMPLETE.MBLURAY-MIDDLE.part07.rar.html
https://subyshare.com/mhjumri25pgs/The.Morricone.Duel.The.Most.Dangerous.Concert.Ever.2018.COMPLETE.MBLURAY-MIDDLE.part08.rar.html
https://subyshare.com/91m1xfqd1xvu/The.Morricone.Duel.The.Most.Dangerous.Concert.Ever.2018.COMPLETE.MBLURAY-MIDDLE.part09.rar.html
https://subyshare.com/j5ze0u36krd0/The.Morricone.Duel.The.Most.Dangerous.Concert.Ever.2018.COMPLETE.MBLURAY-MIDDLE.part10.rar.html
https://subyshare.com/ujwv5am3lugf/The.Morricone.Duel.The.Most.Dangerous.Concert.Ever.2018.COMPLETE.MBLURAY-MIDDLE.part11.rar.html
https://subyshare.com/3bcgpbcj02t9/The.Morricone.Duel.The.Most.Dangerous.Concert.Ever.2018.COMPLETE.MBLURAY-MIDDLE.part12.rar.html
https://subyshare.com/f09xu7qrzrvi/The.Morricone.Duel.The.Most.Dangerous.Concert.Ever.2018.COMPLETE.MBLURAY-MIDDLE.part13.rar.html
https://subyshare.com/y113ettfsnnb/The.Morricone.Duel.The.Most.Dangerous.Concert.Ever.2018.COMPLETE.MBLURAY-MIDDLE.part14.rar.html

BDRip 720p

https://subyshare.com/pa4k3lk70z6p/The.Morricone.Duel.The.Most.Dangerous.Concert.Ever.2018.720p.MBluRay.x264-TREBLE.part1.rar.html
https://subyshare.com/riz7ok45og01/The.Morricone.Duel.The.Most.Dangerous.Concert.Ever.2018.720p.MBluRay.x264-TREBLE.part2.rar.html
https://subyshare.com/u4yu7idpm96c/The.Morricone.Duel.The.Most.Dangerous.Concert.Ever.2018.720p.MBluRay.x264-TREBLE.part3.rar.html
https://subyshare.com/m6maos345sp4/The.Morricone.Duel.The.Most.Dangerous.Concert.Ever.2018.720p.MBluRay.x264-TREBLE.part4.rar.html

BDRip 1080p

https://subyshare.com/jnrq4vsu5imm/The.Morricone.Duel.The.Most.Dangerous.Concert.Ever.2018.1080p.MBluRay.x264-TREBLE.part1.rar.html
https://subyshare.com/560tfpzpz1ls/The.Morricone.Duel.The.Most.Dangerous.Concert.Ever.2018.1080p.MBluRay.x264-TREBLE.part2.rar.html
https://subyshare.com/9wu4ns776poe/The.Morricone.Duel.The.Most.Dangerous.Concert.Ever.2018.1080p.MBluRay.x264-TREBLE.part3.rar.html
https://subyshare.com/ju2x4xsggf9m/The.Morricone.Duel.The.Most.Dangerous.Concert.Ever.2018.1080p.MBluRay.x264-TREBLE.part4.rar.html

%d bloggers like this: