Skip to content

Taylor Swift – Folklore The Long Pond Studio Sessions 2020 Web-DL 2160p HEVC DDP 5.1

Title: Folklore: The Long Pond Studio Sessions
Year: 2020
Time: 01:46:30
Genre: Documentary / Drama / Music
Directed by: Taylor Swift
Starring: Jack Antonoff / Aaron Dessner / Taylor Swift / Justin Vernon
IMDB Rating: 8.4
IMDB URL: http://www.imdb.com/title/tt13524234/

Quality: Web-DL
Video resolution / scan: 2160p
Container: MKV
Video Codec: HEVC
Audio codec: DD +
Video: HVC1 3840×2160 23.976fps 16.5 Mb / s
Audio: DD + 48000Hz 6ch 9216kbps

Folklore: The Long Pond Studio Sessions – American concert documentary 2020,
filmed and produced by American singer-songwriter Taylor Swift, released on November 25, 2020 for Disney

the 1 (Live debut)
cardigan (Live debut)
the last great american dynasty (Live debut)
exile (with Justin Vernon) (Live debut)
my tears ricochet (Live debut)
mirrorball (Live debut)
seven (Live debut)
august (Live debut)
this is me trying (Live debut)
illicit affairs (Live debut)
invisible string (Live debut)
mad woman (Live debut)
epiphany (Live debut)
betty
peace (Live debut)
hoax (Live debut)
the lakes (Live debut)

General
Unique ID                      : 174630616966767774066035766717004672079 (0x8360A229467C1D75A4261522CC606C4F)
Complete name                  : F:\Taylor Swift - Folklore The Long Pond Studio Sessions 2020.mkv
Format                         : Matroska
Format version                 : Version 4
File size                      : 12.8 GiB
Duration                       : 1 h 46 min
Overall bit rate               : 17.2 Mb/s
Encoded date                   : UTC 2020-12-27 01:21:38
Writing application            : mkvmerge v42.0.0 ('Overtime') 64-bit
Writing library                : libebml v1.3.10 + libmatroska v1.5.2

Video
ID                             : 1
Format                         : HEVC
Format/Info                    : High Efficiency Video Coding
Format profile                 : Main 10@L5@High
HDR format                     : SMPTE ST 2086, HDR10 compatible
Codec ID                       : V_MPEGH/ISO/HEVC
Duration                       : 1 h 46 min
Bit rate                       : 16.5 Mb/s
Width                          : 3 840 pixels
Height                         : 2 160 pixels
Display aspect ratio           : 16:9
Frame rate mode                : Constant
Frame rate                     : 23.976 (24000/1001) FPS
Color space                    : YUV
Chroma subsampling             : 4:2:0
Bit depth                      : 10 bits
Bits/(Pixel*Frame)             : 0.083
Stream size                    : 12.2 GiB (96%)
Default                        : Yes
Forced                         : No
Color range                    : Limited
Color primaries                : BT.2020
Transfer characteristics       : PQ
Matrix coefficients            : BT.2020 non-constant
Mastering display color primar : BT.2020
Mastering display luminance    : min: 0.0001 cd/m2, max: 1000 cd/m2

Audio
ID                             : 2
Format                         : E-AC-3 JOC
Format/Info                    : Enhanced AC-3 with Joint Object Coding
Commercial name                : Dolby Digital Plus with Dolby Atmos
Codec ID                       : A_EAC3
Duration                       : 1 h 46 min
Bit rate mode                  : Constant
Bit rate                       : 768 kb/s
Channel(s)                     : 6 channels
Channel layout                 : L R C LFE Ls Rs
Sampling rate                  : 48.0 kHz
Frame rate                     : 31.250 FPS (1536 SPF)
Compression mode               : Lossy
Stream size                    : 585 MiB (4%)
Language                       : English
Service kind                   : Complete Main
Default                        : Yes
Forced                         : No
Complexity index               : 16
Number of dynamic objects      : 15
Bed channel count              : 1 channel
Bed channel configuration      : LFE

Screenshots

pic pic pic pic pic pic pic pic pic pic pic pic

Download

https://subyshare.com/y707rk5u40an/mvabc.xyz_TS.Folklore.TheLongPondStudioSessions.2020.part01.rar.html
https://subyshare.com/k9nagbztidsp/mvabc.xyz_TS.Folklore.TheLongPondStudioSessions.2020.part02.rar.html
https://subyshare.com/hhomsv4qini5/mvabc.xyz_TS.Folklore.TheLongPondStudioSessions.2020.part03.rar.html
https://subyshare.com/t1xqhz05u97q/mvabc.xyz_TS.Folklore.TheLongPondStudioSessions.2020.part04.rar.html
https://subyshare.com/o9gw0uu69lc6/mvabc.xyz_TS.Folklore.TheLongPondStudioSessions.2020.part05.rar.html
https://subyshare.com/vuq26vwdxelr/mvabc.xyz_TS.Folklore.TheLongPondStudioSessions.2020.part06.rar.html
https://subyshare.com/dtup5n3m455z/mvabc.xyz_TS.Folklore.TheLongPondStudioSessions.2020.part07.rar.html
https://subyshare.com/6vbqmmhni8w0/mvabc.xyz_TS.Folklore.TheLongPondStudioSessions.2020.part08.rar.html
https://subyshare.com/1ay5svvjwd6h/mvabc.xyz_TS.Folklore.TheLongPondStudioSessions.2020.part09.rar.html
https://subyshare.com/h61jcf6mlgda/mvabc.xyz_TS.Folklore.TheLongPondStudioSessions.2020.part10.rar.html

%d bloggers like this: