Skip to content

Sting – Live in Berlin 2010 Blu-ray 720p AVC DTS 5.1 ELR

Original title: Sting – Live in Berlin
Released: 2010
Genre: Rock

Live in Berlin – a concert by Sting, accompanied by the
Royal Symphony Concert Orchestra conducted by Steven Mercurio,
September 21, 2010 in O2 World Arena, Berlin. Blu-ray includes
many famous songs of Sting and the Police, such as “Roxanne”,
“Every Little Thing She Does Is Magic”, “King Of Pain”, “Fields Of Gold”
and others – in the symphonic arrangement.

1. A Thousand Years
2. Every Little Thing She Does Is Magic
3. Englishman In New York
4. Roxanne
5. When We Dance
6. Russians
7. I Hung My Head
8. Why Should I Cry For You?
9. Whenever I Say Your Name
10. This Cowboy Song
11. Tomorrow We’ll See
12. Moon Over Bourbon Street
13. End Of The Game
14. You Will Be My Ain True Love
15. All Would Envy
16. Mad About You
17. King Of Pain
18. Every Breath You Take
19. Desert Rose
20. She’s Too Good For Me
21. Fragile
22. I Was Brought To My Senses
17. We Rock

Issued: United States | Decca
Length: 2:04:46
Video : 1280x720p/AVC [email protected] 4.1/16:9/3 453 Kbps/29.970 fps/4.32 GiB/2h 4mn
Audio : English DTS 5.1 (48 kHz / 1,510 kbps / 24-bit) Lossy 6 channels Front: L C R, Side: L R, LFE


General
Complete name : Sting - Live in Berlin 2010 Blu-ray 720p AVC DTS 5 1 ELR.mkv
Format : Matroska
File size : 4.32 GiB
Duration : 2h 4mn
Overall bit rate : 4 964 Kbps
Movie name : Sting - Live in Berlin 2010 Blu-ray 720p AVC DTS 5 1 ELR
Encoded date : UTC 2010-12-04 11:35:54
Writing application : mkvmerge v4.3.0 ('Escape from the Island') built on Sep 5 2010 10:30:51
Writing library : libebml v1.0.0 + libmatroska v1.0.0
Video
ID : 1
Format : AVC
Format/Info : Advanced Video Codec
Format profile : [email protected]
Format settings, CABAC : Yes
Format settings, ReFrames : 3 frames
Muxing mode : Container [email protected]
Codec ID : V_MPEG4/ISO/AVC
Duration : 2h 4mn
Bit rate : 3 453 Kbps
Width : 1 280 pixels
Height : 720 pixels
Display aspect ratio : 16:9
Frame rate : 29.970 fps
Color space : YUV
Chroma subsampling : 4:2:0
Bit depth : 8 bits
Scan type : Progressive
Bits/(Pixel*Frame) : 0.125
Stream size : 2.92 GiB (68%)
Writing library : x264 core 105 r1732 2b04482
Audio
ID : 2
Format : DTS
Format/Info : Digital Theater Systems
Codec ID : A_DTS
Duration : 2h 4mn
Bit rate mode : Constant
Bit rate : 1 510 Kbps
Channel(s) : 6 channels
Channel positions : Front: L C R, Side: L R, LFE
Sampling rate : 48.0 KHz
Bit depth : 24 bits
Stream size : 1.31 GiB (30%)

Download:

http://usenetsearch.pw/b014035e6a3/hdmusic.me_stingB3rlin720.part1.rar
http://usenetsearch.pw/a186b90d7c2/hdmusic.me_stingB3rlin720.part2.rar
http://usenetsearch.pw/cd2e97ff517/hdmusic.me_stingB3rlin720.part3.rar
http://usenetsearch.pw/b014035e6a5/hdmusic.me_stingB3rlin720.part4.rar
http://usenetsearch.pw/b014035e6a4/hdmusic.me_stingB3rlin720.part5.rar

or

http://extabit.com/file/2dagqgssqqyf9/hdmusic.me_stingB3rlin720.part1.rar
http://extabit.com/file/2dagqgssqqovp/hdmusic.me_stingB3rlin720.part2.rar
http://extabit.com/file/2dagqgssqqyed/hdmusic.me_stingB3rlin720.part3.rar
http://extabit.com/file/2dagqgssqqs1h/hdmusic.me_stingB3rlin720.part4.rar
http://extabit.com/file/2dagqgssqqs39/hdmusic.me_stingB3rlin720.part5.rar

%d bloggers like this: