Skip to content

Steven Wilson: 4 1/2 (2016) [High Fidelity Pure Audio Blu-Ray Disc]

Artist: Steven Wilson
Title: 4 ½
Released: 2016
Genre: Rock, Neo-Prog, Alternative / Indie Rock, Singer / Songwriter
Artist: Steven Wilson – guitars, lead vocals, autoharp, mellotron, piano, percussion, virtual instruments (tracks 1-6), Adam Holzman – Wurlitzer, hammond organ, minimoog, rhodes, piano (tracks 1-6), Dave Kilminster – guitar (tracks 1 and 6), Guthrie Govan – guitar (track 3), Nick Beggs – bass, Chapman Stick, backing vocals (tracks 1-6), Craig Blundell – drums (tracks 1, 5, and 6), Marco Minnemann – drums (track 3), Chad Wackerman – drums (track 4), Theo Travis – reeds (tracks 4 and 6), Ninet Tayeb – vocals (track 6)

Label: © Kscope
Recorded: October 2012 – October 2015
Quality: Blu-ray Audio
Duration: 00:36:46 + 00:36:54 + 00:03:58
Video: MPEG-4 AVC 5003 kbps / 1080p / 23,976 fps / 16:9 / High Profile 4.1
Audio: English DTS-HD MA 5.1 / 96 kHz / 7333 kbps / 24-bit (DTS Core: 6.1 / 48 kHz / 1509 kbps / 24-bit)
Audio: English LPCM 5.1 / 96 kHz / 13824 kbps / 24-bit
Audio: English LPCM 2.0 / 96 kHz / 4608 kbps / 24-bit

An interim release between Hand. Cannot. Erase. and his next album, Steven Wilson’s 4 ½ comprises 6 tracks with a total running time of 37 minutes.
Four of the songs originated during the sessions for Hand. Cannot. Erase. and one from the recording sessions for The Raven That Refused To Sing. The final track is a new version of Don’t Hate Me – a song recorded by Porcupine Tree in 1998 – based on a live recording made on the recent tour of Europe, with additional recording in the studio. The vocals on this new version are sung as a duet between Steven and Ninet Tayeb.

Adam Holzman, Nick Beggs, Guthrie Govan, Dave Kilminster, Craig Blundell, Marco Minnemann, Chad Wackerman and Theo Travis also contribute to 4 ½.
Blu-Ray version in an amray case with die cut slipcase and 8 page booklet photographed by Lasse Hoile and designed by Carl Glover. The blu-ray edition includes high res stereo, a 5.1 mix of the album, plus 6 bonus instrumentals and alternative mixes including a 5.1 mix of the 2015 version of Lazarus.

Tracklist:
1. My Book of Regrets 9.23
2. Year of the Plague 4.15
3. Happiness III 4.31
4. Sunday Rain Sets In 3.50
5. Vermillioncore 5.09
6. Don’t Hate Me 9.34
Blu-ray Exclusive Bonus Tracks (#8-10 Only Stereo):
7. Lazarus (2015 recording) 3.58
8. My Book Of Regrets (edit) 3.34
9. Don’t Hate Me (sw vocal version) 9.34
10. My Book Of Regrets (instrumental) 9.35
11. Happiness III (instrumental) 4.31
12. Don`t Hate Me (instrumental) 9.34

DISC INFO:

Disc Title:     Steven Wilson 4 ½.2016.BDA1080p
Disc Size:      15 928 911 467 bytes
Protection:     AACS
BD-Java:        No
BDInfo:         0.5.8

PLAYLIST REPORT:

Name:                   00003.MPLS
Length:                 0:36:54.295 (h:m:s.ms)
Size:                   5 542 161 984 bytes
Total Bitrate:          20,02 Mbps

VIDEO:

Codec                   Bitrate             Description    
-----                   -------             -----------    
MPEG-4 AVC Video        4999 kbps           1080p / 23,976 fps / 16:9 / High Profile 4.1

AUDIO:

Codec                           Language        Bitrate         Description    
-----                           --------        -------         -----------    
LPCM Audio                      English         4608 kbps       2.0 / 96 kHz / 4608 kbps / 24-bit
LPCM Audio                      English         4608 kbps       2.0 / 96 kHz / 4608 kbps / 24-bit
LPCM Audio                      English         4608 kbps       2.0 / 96 kHz / 4608 kbps / 24-bit

FILES:

Name            Time In         Length          Size            Total Bitrate  
----            -------         ------          ----            -------------  
00003.M2TS      0:00:00.000     0:36:53.294     5 542 137 408   20 032          
00006.M2TS      0:36:53.294     0:00:01.000     24 576          196            

PLAYLIST REPORT:

Name:                   00002.MPLS
Length:                 0:36:46.829 (h:m:s.ms)
Size:                   9 055 393 344 bytes
Total Bitrate:          32,83 Mbps

VIDEO:

Codec                   Bitrate             Description    
-----                   -------             -----------    
MPEG-4 AVC Video        5003 kbps           1080p / 23,976 fps / 16:9 / High Profile 4.1

AUDIO:

Codec                           Language        Bitrate         Description    
-----                           --------        -------         -----------    
DTS-HD Master Audio             English         7333 kbps       5.1 / 96 kHz / 7333 kbps / 24-bit (DTS Core: 6.1 / 48 kHz / 1509 kbps / 24-bit)
LPCM Audio                      English         13824 kbps      5.1 / 96 kHz / 13824 kbps / 24-bit
LPCM Audio                      English         4608 kbps       2.0 / 96 kHz / 4608 kbps / 24-bit

FILES:

Name            Time In         Length          Size            Total Bitrate  
----            -------         ------          ----            -------------  
00002.M2TS      0:00:00.000     0:36:45.828     9 055 368 768   32 841          
00006.M2TS      0:36:45.828     0:00:01.000     24 576          196             

PLAYLIST REPORT:

Name:                   00004.MPLS
Length:                 0:03:58.947 (h:m:s.ms)
Size:                   947 802 048 bytes
Total Bitrate:          31,73 Mbps

VIDEO:

Codec                   Bitrate             Description    
-----                   -------             -----------    
MPEG-4 AVC Video        4964 kbps           1080p / 23,976 fps / 16:9 / High Profile 4.1

AUDIO:

Codec                           Language        Bitrate         Description    
-----                           --------        -------         -----------    
DTS-HD Master Audio             English         6377 kbps       5.1 / 96 kHz / 6377 kbps / 24-bit (DTS Core: 6.1 / 48 kHz / 1509 kbps / 24-bit)
LPCM Audio                      English         13824 kbps      5.1 / 96 kHz / 13824 kbps / 24-bit
LPCM Audio                      English         4608 kbps       2.0 / 96 kHz / 4608 kbps / 24-bit

FILES:

Name            Time In         Length          Size            Total Bitrate  
----            -------         ------          ----            -------------  
00004.M2TS      0:00:00.000     0:03:57.946     947 777 472     31 860          
00006.M2TS      0:03:57.946     0:00:01.000     24 576          196

Blu-ray Audio Disc:

https://subyshare.com/3i5ofzhcw9hy/SW4.2016.BDA1080p.part01.rar.html
https://subyshare.com/7ijf9pt6u4km/SW4.2016.BDA1080p.part02.rar.html
https://subyshare.com/l2h38y9dn5ep/SW4.2016.BDA1080p.part03.rar.html
https://subyshare.com/k1eqozw43em4/SW4.2016.BDA1080p.part04.rar.html
https://subyshare.com/4gv4761vkpnz/SW4.2016.BDA1080p.part05.rar.html
https://subyshare.com/0aleslsyo6ag/SW4.2016.BDA1080p.part06.rar.html
https://subyshare.com/fxiifw9zi6t1/SW4.2016.BDA1080p.part07.rar.html
https://subyshare.com/uradoonqbrlp/SW4.2016.BDA1080p.part08.rar.html
https://subyshare.com/3igp29n4g972/SW4.2016.BDA1080p.part09.rar.html
https://subyshare.com/f13kywf0z2rf/SW4.2016.BDA1080p.part10.rar.html
https://subyshare.com/qji3ztl6rgzj/SW4.2016.BDA1080p.part11.rar.html
https://subyshare.com/uhm44b75hi7u/SW4.2016.BDA1080p.part12.rar.html
https://subyshare.com/yurka7mbjm0j/SW4.2016.BDA1080p.part13.rar.html
https://subyshare.com/kadrimisid1x/SW4.2016.BDA1080p.part14.rar.html
https://subyshare.com/0008av1wkdnc/SW4.2016.BDA1080p.part15.rar.html
https://subyshare.com/bb26er7h6dx6/SW4.2016.BDA1080p.part16.rar.html

Steven Wilson – 4 1/2 (2016) [Official Digital Download 24bit/96kHz]

http://hdmusic.site/steven-wilson-4-12-2016-official-digital-download-24bit96khz/

%d bloggers like this: