Skip to content

Sol Gabetta & Sir Simon Rattle in Baden-Baden (2016) Blu-ray 1080i AVC DTS-HD 5.1

Сomposer: Edward Elgar (1857-1934), György Ligeti (1923-2006), Igor Stravinsky (1882-1971), Richard Wagner (1813-1883)
Title: Sol Gabetta & Sir Simon Rattle in Baden-Baden
Release Date: 2016
Genre: Classical
Director: Torben Schmidt Jacobsen
Conductor: Sir Simon Rattle
Artist: Sol Gabetta, cello; Berliner Philharmoniker

Production/Label: EuroArts Music International
Duration: 01:28:19
Quality: Blu-ray
Container: BDMV
Video codec: AVC
Audio codec: DTS, PCM
Video: MPEG-4 AVC 24609 kbps / 1920*1080i / 29,970 fps / 16:9 / High Profile 4.1
Audio#1: DTS-HD MA 5.1 / 48 kHz / 4128 kbps / 24-bit (DTS Core: 5.0 / 48 kHz / 1509 kbps / 24-bit)
Audio#2: LPCM Audio / 2.0 / 48 kHz / 2304 kbps / 24-bit
Size: 20.38 GB

The Argentinian cellist Sol Gabetta made her Philharmoniker debut at the 2014 Easter Festival in Baden-Baden with Edward Elgar’s Cello Concerto, the final great work of the composer. “Sol Gabetta’s Elgar Concerto is one of the best around, a heartfelt, tonally rounded performance.” (Gramophone ). The orchestra and conductor also performed the prelude to Wagner’s Lohengrin, György Ligeti’s orchestral piece Atmosphères and Igor Stravinsky’s Le Sacre du Printemps, a work which is entirely focused on the future and pushes the boundaries of classical music in terms of sound, rhythm and energy.
Sir Simon Rattle and the Berliner Philharmoniker contrasted the prelude to Wagner’s Lohengrin and György Ligeti’s orchestral piece Atmosphères perfectly, demonstrating that they both employ different styles to pursue a similar objective – an iridescent, otherworldly sound.
Star cellist Sol Gabetta gave an outstanding interpretation of Elgar’s Cello Concerto: the final great work of the composer, full of melancholy and a sense of farewell.
In contrast to Elgar, Igor Stravinsky’s Le Sacre du Printemps is focused on the future. In their previous performances, the Berliner Philharmoniker and Simon Rattle have shown that this work, despite its inherent modernity, also provides a wealth of sensual pleasure. “The musicians breezed through the Sacre with ridiculous virtuosity, as laid-back as if it were a mambo on a dance floor on a Caribbean beach.” –Frankfurter Allgemeine Zeitung
Recorded live at Festspielhaus Baden-Baden, 2014.

Tracklist:

1. Opening  00:35
György Ligeti (1923-2006)
2. Atmosphères  08:47
Richard Wagner (1813-1883)
3. Prelude to Act 1 of the opera Lohengrin 10:51
Edward Elgar (1857-1934)
Cello Concerto in E minor, Op. 85
4. Adagio — Moderato  08:35
5. Lento – Allegro molto  04:32
6. Adagio  05:01
7. Allegro – Moderato – Allegro, ma non-troppo  13:01
Igor Stravinsky (1882-1971)
Le Sacre du Printemps
8. L`Adoration de la terre  16:18
9. Le Sacrifice  18:30
10. Applause & End Credits  02:00

DISC INFO:

Disc Title:     Elgar, Ligeti, Stravinsky, Wagner.Sol Gabetta, Berliner Philharmoniker, Simon Rattle.2016.BD1080i
Disc Size:      21 881 480 785 bytes
Protection:     AACS
BD-Java:        No
BDInfo:         0.5.8

PLAYLIST REPORT:

Name:                   00000.MPLS
Length:                 1:28:19.260 (h:m:s.ms)
Size:                   21 698 592 768 bytes
Total Bitrate:          32,76 Mbps

VIDEO:

Codec                   Bitrate             Description    
-----                   -------             -----------    
MPEG-4 AVC Video        24609 kbps          1080i / 29,970 fps / 16:9 / High Profile 4.1

AUDIO:

Codec                           Language        Bitrate         Description    
-----                           --------        -------         -----------    
LPCM Audio                      Undetermined    2304 kbps       2.0 / 48 kHz / 2304 kbps / 24-bit
DTS-HD Master Audio             Undetermined    4128 kbps       5.1 / 48 kHz / 4128 kbps / 24-bit (DTS Core: 5.1 / 48 kHz / 1509 kbps / 24-bit)

FILES:

Name            Time In         Length          Size            Total Bitrate  
----            -------         ------          ----            -------------  
00000.M2TS      0:00:00.000     1:28:10.885     21 696 485 376  32 806          
00008.M2TS      1:28:10.885     0:00:08.041     2 095 104       2 084          
00007.M2TS      1:28:18.926     0:00:00.333     12 288          295

Download:

https://subyshare.com/uysydyve987p/ElgarLigetiStravinskyWagner.S0lGabettaBerlinerPhilharm0nikerSim0nRattle.2016.BD1080i.part01.rar.html
https://subyshare.com/ugf4plxcy4xg/ElgarLigetiStravinskyWagner.S0lGabettaBerlinerPhilharm0nikerSim0nRattle.2016.BD1080i.part02.rar.html
https://subyshare.com/pbfri0oo1o2d/ElgarLigetiStravinskyWagner.S0lGabettaBerlinerPhilharm0nikerSim0nRattle.2016.BD1080i.part03.rar.html
https://subyshare.com/tf3xxcw9iw52/ElgarLigetiStravinskyWagner.S0lGabettaBerlinerPhilharm0nikerSim0nRattle.2016.BD1080i.part04.rar.html
https://subyshare.com/w811pjc9qdeb/ElgarLigetiStravinskyWagner.S0lGabettaBerlinerPhilharm0nikerSim0nRattle.2016.BD1080i.part05.rar.html
https://subyshare.com/72k3wqcwnjpj/ElgarLigetiStravinskyWagner.S0lGabettaBerlinerPhilharm0nikerSim0nRattle.2016.BD1080i.part06.rar.html
https://subyshare.com/i1lqar6c1np1/ElgarLigetiStravinskyWagner.S0lGabettaBerlinerPhilharm0nikerSim0nRattle.2016.BD1080i.part07.rar.html
https://subyshare.com/6knm63ok8833/ElgarLigetiStravinskyWagner.S0lGabettaBerlinerPhilharm0nikerSim0nRattle.2016.BD1080i.part08.rar.html
https://subyshare.com/6jeoq2z5c9d3/ElgarLigetiStravinskyWagner.S0lGabettaBerlinerPhilharm0nikerSim0nRattle.2016.BD1080i.part09.rar.html
https://subyshare.com/91lfqtrl9pai/ElgarLigetiStravinskyWagner.S0lGabettaBerlinerPhilharm0nikerSim0nRattle.2016.BD1080i.part10.rar.html
https://subyshare.com/8qkb2gclm2u0/ElgarLigetiStravinskyWagner.S0lGabettaBerlinerPhilharm0nikerSim0nRattle.2016.BD1080i.part11.rar.html
https://subyshare.com/41upuec1rx2e/ElgarLigetiStravinskyWagner.S0lGabettaBerlinerPhilharm0nikerSim0nRattle.2016.BD1080i.part12.rar.html
https://subyshare.com/sboqa1yr7dbn/ElgarLigetiStravinskyWagner.S0lGabettaBerlinerPhilharm0nikerSim0nRattle.2016.BD1080i.part13.rar.html
https://subyshare.com/jc89r8876pwu/ElgarLigetiStravinskyWagner.S0lGabettaBerlinerPhilharm0nikerSim0nRattle.2016.BD1080i.part14.rar.html

Winrar Recovery Volumes:
https://subyshare.com/yxxw1syo7f2b/ElgarLigetiStravinskyWagner.S0lGabettaBerlinerPhilharm0nikerSim0nRattle.2016.BD1080i.part01.rev.html
https://subyshare.com/i196xdnc5r0r/ElgarLigetiStravinskyWagner.S0lGabettaBerlinerPhilharm0nikerSim0nRattle.2016.BD1080i.part02.rev.html

%d bloggers like this: