Skip to content

Sigur Ros – Valtari Film Experiment (2013) Blu-ray 1080i AVC LPCM 2.0

Title: Sigur Ros – Valtari Film Experiment
Release Date: 2013
Genre: Rock, Alternative, Performing Arts

Production/Label: EMI
Duration: 02:17:00
Quality: Blu-ray
Container: BDMV
Video codec: MPEG4 AVC
Audio codec: LPCM
Video: MPEG-4 AVC 12997 kbps 1920*1080i / 29,970 fps / 16:9 / High Profile 4.1
Audio: English LPCM 2.0 / 48 kHz / 2304 kbps / 24-bit
Size: 23.12 GB

A collection of short films shot for the music of Icelandic post-rock band Sigur Ros. Sigur Ros are known for their haunting, ethereal music and elements of mystique to their onstage and offstage personas. For their 2012 album ‘Valtari’ the band enlisted a number of film makers including Ramin Bahrani, Alma Har’el and John Cameron Mitchell to produce a video for each of the album’s tracks. Interested in exploring concepts of artistic freedom, the band gave the directors no instructions and simply allowed them to produce whatever images came to mind when they listened to the music.

https://18seconds.sigurros.com/valtari/videos/

Tracklist:
01. Varúð (Inga Birgisdóttir)
02. Valtari (Christian Larson)
03. Ég Anda (Ragnar Kjartansson)
04. Ekki Múkk (Nick Abrahams)
05. Varðeldur (Clare Langan)
06. Leaning Towards Solace (Floria Sigismondi)
07. Seraph (Dash Shaw John Cameron Mitchell)
08. Dauðalogn (Ruslan Fedotow)
09. Rembihnútur (Arni And Kinski)
10. Fjögur Píanó (Alma Har’el)
11. Ég Anda (Ramin Bahrani)
12. Varðeldur (Melika Bass)
13. Varúð (Bjorn Floki)
14. Dauðalogn (Henry J W Lee)
15. Fjögur Píanó (Anafelle Liu, Dio Lau and Ken Ngan)
16. Varúð (Ryan Mcginley)

pic pic
pic pic
pic pic
pic pic

DISC INFO:

Disc Title:     Sigur.Ros.Valtari.Film.Experiment.2013.COMPLETE.MBLURAY-FKKHD
Disc Size:      24 828 123 264 bytes
Protection:     AACS
BD-Java:        No
BDInfo:         0.5.8

PLAYLIST REPORT:

Name:                   00026.MPLS
Length:                 0:16:46.739 (h:m:s.ms)
Size:                   2 012 565 504 bytes
Total Bitrate:          15,99 Mbps

VIDEO:

Codec                   Bitrate             Description
-----                   -------             -----------
MPEG-4 AVC Video        12998 kbps          1080i / 29,970 fps / 16:9 / High Profile 4.1

AUDIO:

Codec                           Language        Bitrate         Description
-----                           --------        -------         -----------
LPCM Audio                      English         2304 kbps       2.0 / 48 kHz / 2304 kbps / 24-bit

FILES:

Name            Time In         Length          Size            Total Bitrate
----            -------         ------          ----            -------------
00017.M2TS      0:00:00.000     0:02:54.340     337 403 904     15 482
00016.M2TS      0:02:54.340     0:07:41.627     929 071 104     16 101
00015.M2TS      0:10:35.968     0:06:10.770     746 090 496     16 098

Blu-ray Disc:

https://subyshare.com/fjwd04xcd1p0/Sigur.Ros.Valtari.Film.Experiment.2013.COMPLETE.MBLURAY-FKKHD.part01.rar.html
https://subyshare.com/myq56m1ambi0/Sigur.Ros.Valtari.Film.Experiment.2013.COMPLETE.MBLURAY-FKKHD.part02.rar.html
https://subyshare.com/buu32kf4o8qw/Sigur.Ros.Valtari.Film.Experiment.2013.COMPLETE.MBLURAY-FKKHD.part03.rar.html
https://subyshare.com/3fpa04y32ufu/Sigur.Ros.Valtari.Film.Experiment.2013.COMPLETE.MBLURAY-FKKHD.part04.rar.html
https://subyshare.com/1pp9239tc597/Sigur.Ros.Valtari.Film.Experiment.2013.COMPLETE.MBLURAY-FKKHD.part05.rar.html
https://subyshare.com/5q5nq2c11fj9/Sigur.Ros.Valtari.Film.Experiment.2013.COMPLETE.MBLURAY-FKKHD.part06.rar.html
https://subyshare.com/ucp2iwsiqq76/Sigur.Ros.Valtari.Film.Experiment.2013.COMPLETE.MBLURAY-FKKHD.part07.rar.html
https://subyshare.com/c6j0zppwqfzt/Sigur.Ros.Valtari.Film.Experiment.2013.COMPLETE.MBLURAY-FKKHD.part08.rar.html
https://subyshare.com/d7s9cygx508u/Sigur.Ros.Valtari.Film.Experiment.2013.COMPLETE.MBLURAY-FKKHD.part09.rar.html
https://subyshare.com/72k3a0tnzvua/Sigur.Ros.Valtari.Film.Experiment.2013.COMPLETE.MBLURAY-FKKHD.part10.rar.html
https://subyshare.com/l7e4o11ftp70/Sigur.Ros.Valtari.Film.Experiment.2013.COMPLETE.MBLURAY-FKKHD.part11.rar.html
https://subyshare.com/am82wmg8h8oq/Sigur.Ros.Valtari.Film.Experiment.2013.COMPLETE.MBLURAY-FKKHD.part12.rar.html
https://subyshare.com/ypj9lfy7f2lf/Sigur.Ros.Valtari.Film.Experiment.2013.COMPLETE.MBLURAY-FKKHD.part13.rar.html
https://subyshare.com/fcghrdb028sg/Sigur.Ros.Valtari.Film.Experiment.2013.COMPLETE.MBLURAY-FKKHD.part14.rar.html
https://subyshare.com/kn4feqzsw0x0/Sigur.Ros.Valtari.Film.Experiment.2013.COMPLETE.MBLURAY-FKKHD.part15.rar.html
https://subyshare.com/cvx2a2c29b6v/Sigur.Ros.Valtari.Film.Experiment.2013.COMPLETE.MBLURAY-FKKHD.part16.rar.html
https://subyshare.com/jy9yjkzxu4aa/Sigur.Ros.Valtari.Film.Experiment.2013.COMPLETE.MBLURAY-FKKHD.part17.rar.html

%d bloggers like this: