Skip to content

Salzburg Festival Opening Concert (2009) Blu-ray 1080i AVC DTS-HD 5.0

Title: Salzburg Festival Opening Concert 2009
Release Date: 2015
Genre: Classical
Director: Michael Beyer
Conductor: Nikolaus Harnoncourt
Artist: Wiener Philharmoniker

Production/Label: C Major Entertainment
Duration: 01:35:29
Quality: Blu-ray
Container: BDMV
Video codec: AVC
Audio codec: DTS, PCM
Video: MPEG-4 AVC Video / 20465 kbps / 1080i / 29,970 fps / 16:9 / High Profile 4.1
Audio#1: DTS-HD MA 5.0 / 48 kHz / 3941 kbps / 24-bit (DTS Core: 5.0 / 48 kHz / 1509 kbps / 24-bit)
Audio#2: LPCM 2.0 / 48 kHz / 2304 kbps / 24-bit
Size: 19.94 GB

In one of the most unusual opening concerts of recent decades, Nikolaus Harnoncourt launched the 2009 Salzburg Festival with an exploration of the dance element in Austrian music. Dances by Schubert and Josef Strauss provided an introduction to the magnificent “Dance of Death” that emerged from the octogenarian maestro´s hands in Schubert´s C major Symphony (“Great”). The perfect orchestra for these authentically Viennese and yet universally valid works was, of course, the Vienna Philharmonic. “An interpretation of incomparable richness” (Münchner Merkusr).

Tracklist:
1 Vorspann 00:47
Franz Schubert (1797 – 1828)
2 6 deutsche Tänze D 820 (bearb. von Anton Webern) 10:09
  Josef Strauss (1827 – 1870)
3 Frauenherz op. 166 (Polka mazur) 06:22
4 Delirien op. 212 (Walzer) 11:04
5 Salon-Polka op. 161 (Pêle-mêle) 03:34
  Franz Schubert (1797 – 1828)
  Symphony No. 9 in C Major, D. 944, “Great” (Sinfonie Nr. 8 (alte Nr. 9) C-Dur D 944 “Große C-D)

6 1. Andante – Allegro ma non troppo 16:45
7 2. Andante con moto 15:34
8 3. Scherzo: Allegro vivace – Trio 15:11
9 4. Finale: Allegro vivace 12:04
10 Applaus – Abspann 03:49
Recorded live at the Salzburg Festival, 2009

DISC INFO:

Disc Title:     Salzburg Festival Opening Concert 2009.Nikolaus Harnoncourt, Wiener Philharmoniker.2015.BD1080i
Disc Size:      21 410 739 227 bytes
Protection:     AACS
BD-Java:        No
BDInfo:         0.5.8

PLAYLIST REPORT:

Name:                   00009.MPLS
Length:                 1:35:29.223 (h:m:s.ms)
Size:                   20 221 777 920 bytes
Total Bitrate:          28,24 Mbps

VIDEO:

Codec                   Bitrate             Description    
-----                   -------             -----------    
MPEG-4 AVC Video        20465 kbps          1080i / 29,970 fps / 16:9 / High Profile 4.1

AUDIO:

Codec                           Language        Bitrate         Description    
-----                           --------        -------         -----------    
LPCM Audio                      Undetermined    2304 kbps       2.0 / 48 kHz / 2304 kbps / 24-bit
DTS-HD Master Audio             Undetermined    3941 kbps       5.0 / 48 kHz / 3941 kbps / 24-bit (DTS Core: 5.0 / 48 kHz / 1509 kbps / 24-bit)

FILES:

Name            Time In         Length          Size            Total Bitrate  
----            -------         ------          ----            -------------  
00001.M2TS      0:00:00.000     1:35:18.846     20 220 008 448  28 285          
00011.M2TS      1:35:18.846     0:00:10.043     1 757 184       1 400          
00000.M2TS      1:35:28.889     0:00:00.333     12 288          295

Download:

http://subyshare.com/t51ligp1fm97/Salzburg.Festival.Opening.Concert.2009.part01.rar.html
http://subyshare.com/9eakmio04pyw/Salzburg.Festival.Opening.Concert.2009.part02.rar.html
http://subyshare.com/vox9sup9az5c/Salzburg.Festival.Opening.Concert.2009.part03.rar.html
http://subyshare.com/5qye5sqectoz/Salzburg.Festival.Opening.Concert.2009.part04.rar.html
http://subyshare.com/mt376512nd69/Salzburg.Festival.Opening.Concert.2009.part05.rar.html
http://subyshare.com/f4qz56rd8lbq/Salzburg.Festival.Opening.Concert.2009.part06.rar.html
http://subyshare.com/zr09uq6u2gxf/Salzburg.Festival.Opening.Concert.2009.part07.rar.html
http://subyshare.com/urx7zpryrihi/Salzburg.Festival.Opening.Concert.2009.part08.rar.html
http://subyshare.com/px5egty314s0/Salzburg.Festival.Opening.Concert.2009.part09.rar.html
http://subyshare.com/quezpllky8rl/Salzburg.Festival.Opening.Concert.2009.part10.rar.html
http://subyshare.com/kivpqlxw8lz7/Salzburg.Festival.Opening.Concert.2009.part11.rar.html
http://subyshare.com/qbc881pp8c56/Salzburg.Festival.Opening.Concert.2009.part12.rar.html
http://subyshare.com/qz1z8lee3t6o/Salzburg.Festival.Opening.Concert.2009.part13.rar.html
http://subyshare.com/rynbv0thwxfk/Salzburg.Festival.Opening.Concert.2009.part14.rar.html

%d bloggers like this: