Skip to content

Salzburg Festival Opening Concert (2008) Blu-ray 1080i AVC DTS-HD 5.0

Title: Salzburg Festival Opening Concert 2008
Release Date: 2015
Genre: Classical
Director: Michael Beyer
Conductor: Pierre Boulez
Artist: Daniel Barenboim, piano: Wiener Philharmoniker

Production/Label: C Major Entertainment
Duration: 01:38:19
Quality: Blu-ray
Container: BDMV
Video codec: AVC
Audio codec: DTS, PCM
Video: MPEG-4 AVC Video / 19443 kbps / 1080i / 29,970 fps / 16:9 / High Profile 4.1
Audio#1: DTS-HD MA 5.0 / 48 kHz / 3939 kbps / 24-bit (DTS Core: 5.0 / 48 kHz / 1509 kbps / 24-bit)
Audio#2: LPCM 2.0 / 48 kHz / 2304 kbps / 24-bit
Size: 20.10 GB

A dream of a line-up: Daniel Barenboim, Pierre Boulez and the Vienna Philharmonic! Put one of the world´s greatest orchestras in the hand of one of the foremost specialists of 20th-century music, add a soloist who is one of today´s leading pianists and conductors, and you are assured of a concert of superlatives that pays glowing tribute to three major works of the past century.
“The mutual affection felt by conductor and orchestra once again made for captivating results. Even without dancers, the music danced.” Frankfurter Allgemeine Zeitung
Recorded live at the Grosses Festspielhaus, Salzburg Festival, July 2008.

Tracklist:
1 Vorspann 00:47
  Maurice Ravel (1875 – 1937)
  Valses nobles et sentimentales (für Orchester)

2 Nr. 1: Modéré 01:31
3 Nr. 2: Allez lent 02:32
4 Nr. 3: Modéré 01:28
5 Nr. 4: Assez animé 01:12
6 Nr. 5: Presque lent 01:30
7 Nr. 6: Allez vif 00:41
8 Nr. 7: Moins vif 03:12
9 Nr. 8 Épilogue: Lent 03:48
10 Applaus 01:12
11 Vorspann 00:29
  Béla Bartók (1881-1945)
  Piano Concerto No. 1 (Konzert für Klavier und Orchester Nr. 1 Sz 83)

12 1. Allegro moderato 09:47
13 2. Andante 09:14
14 3. Allegro molto 06:47
15 Applaus 03:03
16 Vorspann 00:27
  Igor Stravinsky (1882-1971)
  L’Oiseau de feu (The Firebird / Der Feuervogel) (Ballett)

17 Introduktion 02:41
18 Kaschtscheis Zaubergarten 01:57
19 Der Feuervogel erscheint, von Prinz Iwan verfolgt 02:26
20 Tanz des Feuervogels 01:23
21 Prinz Iwan fängt den Feuervogel 00:56
22 Flehentliches Bitten des Feuervogels 05:52
23 Auftritt der dreizehn verzauberten Prinzessinnen 02:23
24 Spiel der Prinzessinnen mit den goldenen Äpfeln 02:21
25 Jäher Auftritt von Prinz Iwan 01:20
26 Reigen der Prinzessinnen 04:02
27 Tagesanbruch – Prinz Iwan dringt in Kaschtscheis P 01:30
28 Magisches Glockenspiel – Auftritt der Ungeheuer Ka 01:34
29 Auftritt des Unsterblichen Kaschtschei 01:13
30 Kaschtscheis Zwiegespräch mit Prinz Iwan 01:11
31 Fürsprache der Prinzessinnen 01:08
32 Auftritt des Feuervogels 00:32
33 Tanz von Kaschtscheis Gefolge, unter dem Zauber de 00:47
34 Höllentanz aller Untertanen Kaschtscheis 04:38
35 Wiegenlied (Der Feuervogel) 02:50
36 Kaschtschei erwacht 01:07
37 Kaschtscheis Tod – Tiefes Dunkel 01:30
38 Das Reich des Kaschtschei vergeht – Wiederbelebung 03:10
39 Applaus – Abspann 03:53
Recorded live at the Grosses Festspielhaus, Salzburg Festival, July 2008

DISC INFO:

Disc Title:     Salzburg Festival Opening Concert 2008.Pierre Boulez, Daniel Barenboim, Wiener Philharmoniker.2015.BD1080i
Disc Size:      21 586 542 495 bytes
Protection:     AACS
BD-Java:        No
BDInfo:         0.5.8

PLAYLIST REPORT:

Name:                   00009.MPLS
Length:                 1:38:19.360 (h:m:s.ms)
Size:                   20 034 330 624 bytes
Total Bitrate:          27,17 Mbps

VIDEO:

Codec                   Bitrate             Description    
-----                   -------             -----------    
MPEG-4 AVC Video        19443 kbps          1080i / 29,970 fps / 16:9 / High Profile 4.1

AUDIO:

Codec                           Language        Bitrate         Description    
-----                           --------        -------         -----------    
LPCM Audio                      Undetermined    2304 kbps       2.0 / 48 kHz / 2304 kbps / 24-bit
DTS-HD Master Audio             Undetermined    3939 kbps       5.0 / 48 kHz / 3939 kbps / 24-bit (DTS Core: 5.0 / 48 kHz / 1509 kbps / 24-bit)

FILES:

Name            Time In         Length          Size            Total Bitrate  
----            -------         ------          ----            -------------  
00001.M2TS      0:00:00.000     1:38:08.983     20 032 561 152  27 214          
00011.M2TS      1:38:08.983     0:00:10.043     1 757 184       1 400          
00000.M2TS      1:38:19.026     0:00:00.333     12 288          295

Download:

http://subyshare.com/ba5jt53ydfnh/Salzburg.Festival.Opening.Concert.2008.part01.rar.html
http://subyshare.com/82oe9ttrxpk5/Salzburg.Festival.Opening.Concert.2008.part02.rar.html
http://subyshare.com/0dktmrcrqe2d/Salzburg.Festival.Opening.Concert.2008.part03.rar.html
http://subyshare.com/ktc4m6shtde7/Salzburg.Festival.Opening.Concert.2008.part04.rar.html
http://subyshare.com/jdz1vpdm6n31/Salzburg.Festival.Opening.Concert.2008.part05.rar.html
http://subyshare.com/wv5q4zsnsrdi/Salzburg.Festival.Opening.Concert.2008.part06.rar.html
http://subyshare.com/w2gdw7m0z0iv/Salzburg.Festival.Opening.Concert.2008.part07.rar.html
http://subyshare.com/c8h5i1l194ld/Salzburg.Festival.Opening.Concert.2008.part08.rar.html
http://subyshare.com/7lsk192ldjgr/Salzburg.Festival.Opening.Concert.2008.part09.rar.html
http://subyshare.com/tmbli8pp7lyy/Salzburg.Festival.Opening.Concert.2008.part10.rar.html
http://subyshare.com/1a53zoq4ssd6/Salzburg.Festival.Opening.Concert.2008.part11.rar.html
http://subyshare.com/njb8h3jtnnxe/Salzburg.Festival.Opening.Concert.2008.part12.rar.html
http://subyshare.com/fc5wfyhny2gp/Salzburg.Festival.Opening.Concert.2008.part13.rar.html
http://subyshare.com/6g9c0wkbcmfz/Salzburg.Festival.Opening.Concert.2008.part14.rar.html
http://subyshare.com/tmr5s8h9arrs/Salzburg.Festival.Opening.Concert.2008.part15.rar.html

%d bloggers like this: