Skip to content

Rock in Rio 2017 Guns N Roses 1080i HDTV x264 DD 5.1-ZMG

General
Complete name                            : Rock.in.Rio.2017.D6.Guns.N.Roses.1080i.HDTV-ZMG.mkv
Format                                   : Matroska
Format version                           : Version 4 / Version 2
File size                                : 15.6 GiB
Duration                                 : 3h 27mn
Overall bit rate                         : 10.8 Mbps
Encoded date                             : UTC 2017-09-24 07:41:52
Writing application                      : mkvmerge v6.4.1 (‘Omega Point’) built on Sep 16 2013 22:05:10
Writing library                          : libebml v1.3.0 + libmatroska v1.4.1

Video
ID                                       : 1
Format                                   : AVC
Format/Info                              : Advanced Video Codec
Format profile                           : [email protected]
Format settings, CABAC                   : Yes
Format settings, ReFrames                : 4 frames
Codec ID                                 : V_MPEG4/ISO/AVC
Duration                                 : 3h 27mn
Bit rate                                 : 10.2 Mbps
Width                                    : 1 920 pixels
Height                                   : 1 080 pixels
Display aspect ratio                     : 16:9
Frame rate                               : 29.970 fps
Color space                              : YUV
Chroma subsampling                       : 4:2:0
Bit depth                                : 8 bits
Scan type                                : MBAFF
Bits/(Pixel*Frame)                       : 0.164
Stream size                              : 14.7 GiB (94%)
Default                                  : Yes
Forced                                   : No

Audio
ID                                       : 2
Format                                   : AC-3
Format/Info                              : Audio Coding 3
Mode extension                           : CM (complete main)
Codec ID                                 : A_AC3
Duration                                 : 3h 27mn
Bit rate mode                            : Constant
Bit rate                                 : 384 Kbps
Channel(s)                               : 6 channels
Channel positions                        : Front: L C R, Side: L R, LFE
Sampling rate                            : 48.0 KHz
Bit depth                                : 16 bits
Compression mode                         : Lossy
Delay relative to video                  : -30ms
Stream size                              : 569 MiB (4%)
Language                                 : Portuguese
Default                                  : Yes
Forced                                   : No

Download:

https://subyshare.com/iqy2jt24bsh6/Rock.in.Rio.2017.D6.Guns.N.Roses.1080i.HDTV-ZMG.part01.rar.html
https://subyshare.com/xbo7d9p3qdn3/Rock.in.Rio.2017.D6.Guns.N.Roses.1080i.HDTV-ZMG.part02.rar.html
https://subyshare.com/8zbcfyct4miv/Rock.in.Rio.2017.D6.Guns.N.Roses.1080i.HDTV-ZMG.part03.rar.html
https://subyshare.com/tj6bqrvgn839/Rock.in.Rio.2017.D6.Guns.N.Roses.1080i.HDTV-ZMG.part04.rar.html
https://subyshare.com/m5j0t1m7q5i2/Rock.in.Rio.2017.D6.Guns.N.Roses.1080i.HDTV-ZMG.part05.rar.html
https://subyshare.com/uxjuln1y2ima/Rock.in.Rio.2017.D6.Guns.N.Roses.1080i.HDTV-ZMG.part06.rar.html
https://subyshare.com/ps5bc8g552e2/Rock.in.Rio.2017.D6.Guns.N.Roses.1080i.HDTV-ZMG.part07.rar.html
https://subyshare.com/6q84tym1eaxu/Rock.in.Rio.2017.D6.Guns.N.Roses.1080i.HDTV-ZMG.part08.rar.html
https://subyshare.com/5kszsj4nbw68/Rock.in.Rio.2017.D6.Guns.N.Roses.1080i.HDTV-ZMG.part09.rar.html
https://subyshare.com/cwpqsobyn90k/Rock.in.Rio.2017.D6.Guns.N.Roses.1080i.HDTV-ZMG.part10.rar.html
https://subyshare.com/v3oh70n6npmu/Rock.in.Rio.2017.D6.Guns.N.Roses.1080i.HDTV-ZMG.part11.rar.html

%d bloggers like this: