Skip to content

Pink Floyd – Delicate Sound Of Thunder (2020) UHDTV HDR 2160p

Genre: Progressive Rock
Duration: 01:26:23
Release Year: 2020

Quality: UHDTV HDR
Video Resolution / Scan: 2160p
Container: MKV
Video codec: HEVC
Audio Codec: AC3
Video: HEVC, 3840×2160 (16: 9), 50.000 fps, 26.4 Mb / s
Audio: E-AC-3, 48.0 kHz, 6 ch, 256 kb / s

Tracklist:
1. Shine On You Crazy Diamond, Parts 1-5
2. Signs Of Life
3. Learning To Fly
4. Sorrow
5. On The Turning Away
6. One Of These Days
7. Time
8. On The Run
9. The Great Gig In The Sky
10. Wish You Were Here
11. Us And Them
12. Comfortably Numb
13. One Slip
14. Run Like Hell

The broadcast cut 2 songs The Dogs Of War and Money

pic pic pic pic
pic pic pic pic

General
Unique ID                   : 144199933906828824858706775071381547515 (0x6C7BE5A65014C5C1F7DD9FD56DF469FB)
Complete name               : T:\HDTV\pink_floyd-delicate_sound_of_thunder_(remastered_2019)-hdr-2160p-h265-2019-srp_int.mkv
Format                      : Matroska
Format version              : Version 4
File size                   : 16.1 GiB
Duration                    : 1 h 26 min
Overall bit rate            : 26.6 Mb/s
Encoded date                : UTC 2020-04-20 18:49:48
Writing application         : mkvmerge v42.0.0 ('Overtime') 64-bit
Writing library             : libebml v1.3.10 + libmatroska v1.5.2

Video
ID                          : 2
Format                      : HEVC
Format/Info                 : High Efficiency Video Coding
Format profile              : Main [email protected]@High
Codec ID                    : V_MPEGH/ISO/HEVC
Duration                    : 1 h 26 min
Bit rate                    : 26.4 Mb/s
Width                       : 3 840 pixels
Height                      : 2 160 pixels
Display aspect ratio        : 16:9
Frame rate mode             : Constant
Frame rate                  : 50.000 FPS
Standard                    : Component
Color space                 : YUV
Chroma subsampling          : 4:2:0 (Type 0)
Bit depth                   : 10 bits
Bits/(Pixel*Frame)          : 0.064
Stream size                 : 15.9 GiB (99%)
Default                     : Yes
Forced                      : No
Color range                 : Limited
Color primaries             : BT.2020
Transfer characteristics    : HLG
Matrix coefficients         : BT.2020 non-constant

Audio
ID                          : 1
Format                      : E-AC-3
Format/Info                 : Enhanced AC-3
Commercial name             : Dolby Digital Plus
Codec ID                    : A_EAC3
Duration                    : 1 h 26 min
Bit rate mode               : Constant
Bit rate                    : 256 kb/s
Channel(s)                  : 6 channels
Channel layout              : L R C LFE Ls Rs
Sampling rate               : 48.0 kHz
Frame rate                  : 31.250 FPS (1536 SPF)
Compression mode            : Lossy
Delay relative to video     : 113 ms
Stream size                 : 158 MiB (1%)
Language                    : qaa
Service kind                : Complete Main
Default                     : Yes
Forced                      : No

Download:

https://subyshare.com/plw28ueepqz8/pink_floyd-delicate_sound_of_thunder_(remastered_2019)-hdr-2160p-h265-2019-srp_int.part01.rar.html
https://subyshare.com/xho885knrhps/pink_floyd-delicate_sound_of_thunder_(remastered_2019)-hdr-2160p-h265-2019-srp_int.part02.rar.html
https://subyshare.com/yg3vmm2w96z9/pink_floyd-delicate_sound_of_thunder_(remastered_2019)-hdr-2160p-h265-2019-srp_int.part03.rar.html
https://subyshare.com/lw0c5zw0jwpx/pink_floyd-delicate_sound_of_thunder_(remastered_2019)-hdr-2160p-h265-2019-srp_int.part04.rar.html
https://subyshare.com/fjjwdft0pbe8/pink_floyd-delicate_sound_of_thunder_(remastered_2019)-hdr-2160p-h265-2019-srp_int.part05.rar.html
https://subyshare.com/xn3xv9ecu7vu/pink_floyd-delicate_sound_of_thunder_(remastered_2019)-hdr-2160p-h265-2019-srp_int.part06.rar.html
https://subyshare.com/fnh2wvhgpguy/pink_floyd-delicate_sound_of_thunder_(remastered_2019)-hdr-2160p-h265-2019-srp_int.part07.rar.html
https://subyshare.com/bpmytljgqjsf/pink_floyd-delicate_sound_of_thunder_(remastered_2019)-hdr-2160p-h265-2019-srp_int.part08.rar.html
https://subyshare.com/7ku1l2svylwa/pink_floyd-delicate_sound_of_thunder_(remastered_2019)-hdr-2160p-h265-2019-srp_int.part09.rar.html
https://subyshare.com/egizxlnz0w99/pink_floyd-delicate_sound_of_thunder_(remastered_2019)-hdr-2160p-h265-2019-srp_int.part10.rar.html
https://subyshare.com/2iao7hfsxd2g/pink_floyd-delicate_sound_of_thunder_(remastered_2019)-hdr-2160p-h265-2019-srp_int.part11.rar.html
https://subyshare.com/5ieovw881owo/pink_floyd-delicate_sound_of_thunder_(remastered_2019)-hdr-2160p-h265-2019-srp_int.part12.rar.html

%d bloggers like this: