Skip to content

Nazareth – No Means of Escape (2014) Blu-ray 1080p AVC DTS-HD MA 5.1 + BDRip 720p

Title: Nazareth – No Means of Escape
Release Date: 2015
Genre: Rock, Hard Rock
Artist: Pete Agnew – bass, backing vocals; Jimmy Murrison – guitars; Lee Agnew – drums, backing vocals; Linton Osborne – lead vocals

Production/Label: Eagle Rock Entertainment
Duration: 01:00:29 + 00:57:28 + 00:52:09
Quality: Blu-ray
Container: BDMV
Video codec: AVC
Audio codec: DTS, PCM
Video: MPEG-4 AVC 29967 kbps / 1920*1080p / 23,976 fps / 16:9 / High Profile 4.1
Audio#1: English DTS-HD M 5.1 / 48 kHz / 2606 kbps / 16-bit (DTS Core: 5.1 / 48 kHz / 1509 kbps / 16-bit)
Audio#2: English LPCM 2.0 / 48 kHz / 1536 kbps / 16-bit
Subtitles: English, German, Spanish, French
Size: 42.43 GiB

No Means Of Escape’ combines a live set by Nazareth, filmed before a select audience at London’s famous Metropolis Studios, with a documentary ‘Made In Scotland’, which tells the full story of Nazareth’s remarkable career from their formation in 1968, to their breakthrough in the 1970s and right through to their ongoing career in the present day. The concert features hit tracks and album favorites from across the years while the documentary contains classic footage and new interviews with past and present members of the band including now retired lead singer Dan McCafferty.

Cover features a new version by fantasy artist Rodney Matthews of the classic character he created for Nazareth’s “No Mean City” album in 1979.

Tracklist:
1. Silver Dollar Forger
2. Sleeptalker
3. Rock ‘n’ Roll Telephone
4. Razamanaz
5. May The Sun Shine
6. See You See Me
7. Turn On Your Receiver
8. Bad Bad Boy
9. One Set Of Bones
10. This Flight Tonight
11. Hair Of The Dog
12. Love Hurts
13. Expect No Mercy

Bonus:
• Made in Scotland – documentary
• Acoustic session track: Sunshine
• Additional interview with Dan McCafferty & Pete Agnew
• Meet the superfans

DISC INFO:

Disc Title:     Nazareth.No Mean To Escape.2015.BD1080p
Disc Size:      45 612 438 878 bytes
Protection:     AACS
BD-Java:        No
BDInfo:         0.5.8

PLAYLIST REPORT:

Name:                   00002.MPLS
Length:                 1:00:29.667 (h:m:s.ms)
Size:                   16 398 673 920 bytes
Total Bitrate:          36,14 Mbps

VIDEO:

Codec                   Bitrate             Description
-----                   -------             -----------
MPEG-4 AVC Video        29967 kbps          1080p / 23,976 fps / 16:9 / High Profile 4.1

AUDIO:

Codec                           Language        Bitrate         Description
-----                           --------        -------         -----------
LPCM Audio                      English         1536 kbps       2.0 / 48 kHz / 1536 kbps / 16-bit
DTS-HD Master Audio             English         2606 kbps       5.1 / 48 kHz / 2606 kbps / 16-bit (DTS Core: 5.1 / 48 kHz / 1509 kbps / 16-bit)

FILES:

Name            Time In         Length          Size            Total Bitrate
----            -------         ------          ----            -------------
00002.M2TS      0:00:00.000     1:00:28.666     16 398 649 344  36 154
00009.M2TS      1:00:28.666     0:00:01.000     24 576          196 

PLAYLIST REPORT:

Name:                   00000.MPLS
Length:                 0:57:28.862 (h:m:s.ms)
Size:                   14 328 889 344 bytes
Total Bitrate:          33,24 Mbps

VIDEO:

Codec                   Bitrate             Description
-----                   -------             -----------
MPEG-4 AVC Video        29808 kbps          1080p / 23,976 fps / 16:9 / High Profile 4.1

AUDIO:

Codec                           Language        Bitrate         Description
-----                           --------        -------         -----------
LPCM Audio                      English         1536 kbps       2.0 / 48 kHz / 1536 kbps / 16-bit

SUBTITLES:

Codec                           Language        Bitrate         Description
-----                           --------        -------         -----------
Presentation Graphics           English         52,398 kbps
Presentation Graphics           German          53,750 kbps
Presentation Graphics           Spanish         46,337 kbps
Presentation Graphics           French          42,224 kbps                    

FILES:

Name            Time In         Length          Size            Total Bitrate
----            -------         ------          ----            -------------
00007.M2TS      0:00:00.000     0:57:28.862     14 328 889 344  33 237

PLAYLIST REPORT:

Name:                   00006.MPLS
Length:                 0:52:09.126 (h:m:s.ms)
Size:                   13 626 691 584 bytes
Total Bitrate:          34,84 Mbps

VIDEO:

Codec                   Bitrate             Description
-----                   -------             -----------
MPEG-4 AVC Video        29129 kbps          1080p / 23,976 fps / 16:9 / High Profile 4.1

AUDIO:

Codec                           Language        Bitrate         Description
-----                           --------        -------         -----------
LPCM Audio                      English         1536 kbps       2.0 / 48 kHz / 1536 kbps / 16-bit
DTS-HD Master Audio             English         2017 kbps       5.1 / 48 kHz / 2017 kbps / 16-bit (DTS Core: 5.1 / 48 kHz / 1509 kbps / 16-bit)

SUBTITLES:

Codec                           Language        Bitrate         Description
-----                           --------        -------         -----------
Presentation Graphics           English         44,071 kbps
Presentation Graphics           German          45,442 kbps
Presentation Graphics           Spanish         37,727 kbps
Presentation Graphics           French          35,320 kbps                    

FILES:

Name            Time In         Length          Size            Total Bitrate
----            -------         ------          ----            -------------
00010.M2TS      0:00:00.000     0:52:09.126     13 626 691 584  34 838

Blu-Ray Disc:

https://subyshare.com/dkqf93htaqj2/NazarethN0MeanT0EscapeBD2015.part01.rar.html
https://subyshare.com/9lr1wotfg5w9/NazarethN0MeanT0EscapeBD2015.part02.rar.html
https://subyshare.com/ez7enomilsbk/NazarethN0MeanT0EscapeBD2015.part03.rar.html
https://subyshare.com/uzncy06b5orv/NazarethN0MeanT0EscapeBD2015.part04.rar.html
https://subyshare.com/id9opy6dtui3/NazarethN0MeanT0EscapeBD2015.part05.rar.html
https://subyshare.com/mkxt4ycwmwn6/NazarethN0MeanT0EscapeBD2015.part06.rar.html
https://subyshare.com/c3vrsnh0xwky/NazarethN0MeanT0EscapeBD2015.part07.rar.html
https://subyshare.com/32og0sg6ev70/NazarethN0MeanT0EscapeBD2015.part08.rar.html
https://subyshare.com/948ietywg6nw/NazarethN0MeanT0EscapeBD2015.part09.rar.html
https://subyshare.com/cnvc9wyjki71/NazarethN0MeanT0EscapeBD2015.part10.rar.html
https://subyshare.com/9iixxrsgfnve/NazarethN0MeanT0EscapeBD2015.part11.rar.html
https://subyshare.com/0w9nf9cy22zb/NazarethN0MeanT0EscapeBD2015.part12.rar.html
https://subyshare.com/q7acpuu9rs0g/NazarethN0MeanT0EscapeBD2015.part13.rar.html
https://subyshare.com/cgdoylleqwii/NazarethN0MeanT0EscapeBD2015.part14.rar.html
https://subyshare.com/9ecoulqhw64v/NazarethN0MeanT0EscapeBD2015.part15.rar.html
https://subyshare.com/qmg0utbp6u3k/NazarethN0MeanT0EscapeBD2015.part16.rar.html
https://subyshare.com/q9mqutzt5t3m/NazarethN0MeanT0EscapeBD2015.part17.rar.html
https://subyshare.com/55cmulrzvcor/NazarethN0MeanT0EscapeBD2015.part18.rar.html
https://subyshare.com/76r9dhcul8uw/NazarethN0MeanT0EscapeBD2015.part19.rar.html
https://subyshare.com/1xfry5fiymxg/NazarethN0MeanT0EscapeBD2015.part20.rar.html
https://subyshare.com/w830yl6cmcj2/NazarethN0MeanT0EscapeBD2015.part21.rar.html
https://subyshare.com/3an8hbqk3dwd/NazarethN0MeanT0EscapeBD2015.part22.rar.html
https://subyshare.com/4vfpyg0wty0q/NazarethN0MeanT0EscapeBD2015.part23.rar.html
https://subyshare.com/cwuvfsqy8typ/NazarethN0MeanT0EscapeBD2015.part24.rar.html
https://subyshare.com/h5mgrfr8o2on/NazarethN0MeanT0EscapeBD2015.part25.rar.html
https://subyshare.com/9qu7u0beo29d/NazarethN0MeanT0EscapeBD2015.part26.rar.html
https://subyshare.com/1w9zvnmgqabo/NazarethN0MeanT0EscapeBD2015.part27.rar.html
https://subyshare.com/4qpofup0wp03/NazarethN0MeanT0EscapeBD2015.part28.rar.html
https://subyshare.com/ghtbf6cw5sra/NazarethN0MeanT0EscapeBD2015.part29.rar.html

Recovery Volumes

https://subyshare.com/8wvx9xcsnb19/NazarethN0MeanT0EscapeBD2015.part01.rev.html
https://subyshare.com/hwaxy2or10d8/NazarethN0MeanT0EscapeBD2015.part02.rev.html
https://subyshare.com/tnbaeo0918ay/NazarethN0MeanT0EscapeBD2015.part03.rev.html

BDRip 720p

https://subyshare.com/7azanisxtari/NazarethN0Means0fEscape2015.part1.rar.html
https://subyshare.com/fnanmk2i4ojn/NazarethN0Means0fEscape2015.part2.rar.html
https://subyshare.com/a3s0yu610abh/NazarethN0Means0fEscape2015.part3.rar.html
https://subyshare.com/7fze7h6b8qdv/NazarethN0Means0fEscape2015.part4.rar.html

%d bloggers like this: