Skip to content

Mariss Jansons conducts Dvorak & Mussorgsky (2014) Blu-ray 1080i AVC DTS-HD 5.0

Сomposer: Antonín Dvořák (1841-1904), Modest Petrovich Mussorgsky (1839-1881)
Title: Dvorak: Symphony No. 9 ‘From the New World’; Mussorgsky: Pictures At An Exhibition
Release Date: 2015
Genre: Classical
Director: Michael Beyer
Conductor: Mariss Jansons
Artist: Symphonieorchester des Bayerischen Rundfunks

Production/Label: Clasart Classic/Belvedere
Duration: 00:45:49 + 00:37:03
Quality: Blu-ray
Container: BDMV
Video codec: AVC
Audio codec: DTS, PCM
Video: MPEG-4 AVC 26990 kbps / 1920*1080i / 29,970 fps / 16:9 / High Profile 4.1
Audio#1: DTS-HD MA 5.0 / 48 kHz / 3697 kbps / 24-bit (DTS Core: 5.0 / 48 kHz / 1509 kbps / 24-bit)
Audio#2: LPCM Audio / 2.0 / 48 kHz / 2304 kbps / 24-bit
Size: 20.3 GB

“What I compose is and always remains Czech music,” asserted Antonín Dvorák, and we – the audiences who’ve been enraptured with the Ninth since its world premiere at New York’s Carnegie Hall on 15 December 1893 – are all the richer for it. After a fleeting nod to Negro Spirituals and vaguely Native American rhythms, Dvorák dug into his seemingly bottomless reserve of catchy melodies, foot-tapping rhythms, burnished brass intonations, mellow woodwind lines and other Bohemian traits that would be unthinkable without the pillars of Austro-Germanic music.

“I simply wrote down themes of my own invention and gave them elements typical of the music of the Negroes and Indians. I then used these themes as subjects, developing them with all the resources of rhythm, harmony and counterpoint, and with all the colors of the modern orchestra,” the composer once said. Interestingly, the galley proofs of the work were corrected by none other than Johannes Brahms.

Of course, the work would most probably never have been written if it hadn’t been for a patron, or patroness, to be more precise, Jeanette Thurber, who founded the National Conservatory of Music of America and invited the composer to New York in the hope that he would give birth to a national American music; he had, after all, created a national Czech music.

Tracklist:

Antonín Dvořák (1841-1904)
Symphony No. 9 in E minor, Op. 95 ‘From the New World’
1. I. Adagio – Allegro molto
2. II. Largo
3. III. Scherzo: Molto vivace – Poco sostenuto
4. IV. Allegro con fuoco
Modest Petrovich Mussorgsky (1839-1881)
Pictures at an Exhibition (Orch. Maurice Ravel)
1. Promenade I
2. I. The Gnome
3. Promenade II
4. II. The Old Castle
5. Promenade III
6. III. Tuileries
7. IV. Bydlo
8. Promenade IV
9. V. Ballet of the Unhatched Chicks
10. VI. Samuel Goldenberg and Schmuyle
11. VII. The Market Place at Limoges
12. VIIIa. Catacombae. Sepulchrum romanum
13. VIIIb. Con mortuis in lingua mortua
14. IX. The Hut on Fowl’s Legs (Baba-Yaga)
15 X. The Great Gate of Kiev

DISC INFO:

Disc Title:     DVORAK MUSSORGSKY
Disc Size:      21,799,948,717 bytes
Protection:     AACS
BD-Java:        No
BDInfo:         0.5.8

PLAYLIST REPORT:

Name:                   00000.MPLS
Length:                 0:45:49.012 (h:m:s.ms)
Size:                   11,964,696,576 bytes
Total Bitrate:          34.82 Mbps

VIDEO:

Codec                   Bitrate             Description    
-----                   -------             -----------    
MPEG-4 AVC Video        26990 kbps          1080i / 29.970 fps / 16:9 / High Profile 4.1

AUDIO:

Codec                           Language        Bitrate         Description    
-----                           --------        -------         -----------    
DTS-HD Master Audio             Miscellaneous languages3697 kbps       5.0 / 48 kHz / 3697 kbps / 24-bit (DTS Core: 5.0 / 48 kHz / 1509 kbps / 24-bit)
LPCM Audio                      Miscellaneous languages2304 kbps       2.0 / 48 kHz / 2304 kbps / 24-bit

FILES:

Name            Time In         Length          Size            Total Bitrate  
----            -------         ------          ----            -------------  
00000.M2TS      0:00:00.000     0:45:48.011     11,964,665,856  34,831          
00006.M2TS      0:45:48.011     0:00:01.000     30,720          246

PLAYLIST REPORT:

Name:                   00001.MPLS
Length:                 0:37:03.955 (h:m:s.ms)
Size:                   9,703,563,264 bytes
Total Bitrate:          34.91 Mbps

VIDEO:

Codec                   Bitrate             Description    
-----                   -------             -----------    
MPEG-4 AVC Video        26987 kbps          1080i / 29.970 fps / 16:9 / High Profile 4.1

AUDIO:

Codec                           Language        Bitrate         Description    
-----                           --------        -------         -----------    
DTS-HD Master Audio             Miscellaneous languages3783 kbps       5.0 / 48 kHz / 3783 kbps / 24-bit (DTS Core: 5.0 / 48 kHz / 1509 kbps / 24-bit)
LPCM Audio                      Miscellaneous languages2304 kbps       2.0 / 48 kHz / 2304 kbps / 24-bit

FILES:

Name            Time In         Length          Size            Total Bitrate  
----            -------         ------          ----            -------------  
00001.M2TS      0:00:00.000     0:37:02.954     9,703,532,544   34,921          
00006.M2TS      0:37:02.954     0:00:01.000     30,720          246

Download:

https://subyshare.com/and8mmznt9ra/DVORAK_MUSSORGSKY.part01.rar.html
https://subyshare.com/cudxciyxxs9t/DVORAK_MUSSORGSKY.part02.rar.html
https://subyshare.com/wstkuvt2x2za/DVORAK_MUSSORGSKY.part03.rar.html
https://subyshare.com/k2e2rtwom5wt/DVORAK_MUSSORGSKY.part04.rar.html
https://subyshare.com/nanstp1k3abn/DVORAK_MUSSORGSKY.part05.rar.html
https://subyshare.com/s7xf13o0mmdz/DVORAK_MUSSORGSKY.part06.rar.html
https://subyshare.com/mu0um7a2ilxe/DVORAK_MUSSORGSKY.part07.rar.html
https://subyshare.com/3bo3ueqsckyx/DVORAK_MUSSORGSKY.part08.rar.html
https://subyshare.com/z1ntig8ik3dp/DVORAK_MUSSORGSKY.part09.rar.html
https://subyshare.com/d5vlipgv3uz8/DVORAK_MUSSORGSKY.part10.rar.html
https://subyshare.com/jmywjf9e90eu/DVORAK_MUSSORGSKY.part11.rar.html
https://subyshare.com/xcivh4lo3pb3/DVORAK_MUSSORGSKY.part12.rar.html
https://subyshare.com/i38z5zl6sdaz/DVORAK_MUSSORGSKY.part13.rar.html
https://subyshare.com/zoyr0sigyzzc/DVORAK_MUSSORGSKY.part14.rar.html
https://subyshare.com/ni3pbkzta29u/DVORAK_MUSSORGSKY.part15.rar.html

%d bloggers like this: