Skip to content

KISS 2020 Goodbye (2020) 1080i HDTV Backhaul MPA2.0 H.264-TrollHD

Genre: Hard Rock, Documentary
Length: 03:11:35
Year: 2020

Quality: HDTV
Video resolution / scan: 1080i
Container: MKV
Video Codec: H.264
Video: AVC, 1920×1080 (16: 9), 25.000 fps, 29.1 Mb / s
Audio: MP2, 48.0 kHz, 2 ch, 128 kb / s

Watch the Guinness World Record breaking concert featuring KISS in Dubai for New Years Eve, capturing Most Number of Flame Throwers (73) and Tallest Flame (180 ft.)!

Tracklist:
Introductory Documentary – 00:55:40
1. “Detroit Rock City” – from Destroyer (1976)
2. “Shout It Out Loud” – from Destroyer (1976)
3. “Deuce” – from Kiss (1974)
4. “Say Yeah” – from Sonic Boom (2009)
5. “I Love It Loud” – from Creatures of the Night (1982)
6. “Heaven’s on Fire” – from Animalize (1984)
7. “Tears Are Falling” – from Asylum (1985)
8. “War Machine” – from Creatures of the Night (1982)
9. “Lick It Up” – from Lick It Up (1983)
10. “Calling Dr. Love” – from Rock and Roll Over (1976)
11. “100,000 Years” – from Kiss (1974)
12. “Cold Gin”- from Kiss (1974)
13. “God of Thunder” – from Destroyer (1976)
14. “Psycho Circus” – from Psycho Circus (1998)
15. “Parasite” – from Hotter Than Hell (1974)
16. “Love Gun” – from Love Gun (1977)
17. “I Was Made for Lovin’ You” – from Dynasty (1979)
18. “Black Diamond”- from Kiss (1974)
19. “Beth” – from Destroyer (1976)
20. “Strutter” – from Kiss (1974)
21. “Do You Love Me?” – from Destroyer (1976)
22. “Rock and Roll All Nite” – from Dressed to Kill (1975)

pic pic pic pic
pic pic pic pic

General
Unique ID                   : 209375016387640770369706477435409099829 (0x9D84294F54DCE670DBCC34171FC76C35)
Complete name               : J:\hdtv\KISS 2020 Goodbye (2020) 1080i HDTV Backhaul MPA2.0 H.264-TrollHD.mkv
Format                      : Matroska
Format version              : Version 4
File size                   : 39.1 GiB
Duration                    : 3 h 11 min
Overall bit rate            : 29.2 Mb/s
Encoded date                : UTC 2021-01-05 03:17:59
Writing application         : mkvmerge v47.0.0 ('Black Flag') 64-bit
Writing library             : libebml v1.3.10 + libmatroska v1.5.2

Video
ID                          : 1
Format                      : AVC
Format/Info                 : Advanced Video Codec
Format profile              : High@L4.1
Format settings             : CABAC / 4 Ref Frames
Format settings, CABAC      : Yes
Format settings, Reference  : 4 frames
Codec ID                    : V_MPEG4/ISO/AVC
Duration                    : 3 h 11 min
Bit rate                    : 29.1 Mb/s
Width                       : 1 920 pixels
Height                      : 1 080 pixels
Display aspect ratio        : 16:9
Frame rate mode             : Variable
Frame rate                  : 50.000 FPS
Original frame rate         : 25.000 FPS
Color space                 : YUV
Chroma subsampling          : 4:2:0
Bit depth                   : 8 bits
Scan type                   : Interlaced
Scan type, store method     : Separated fields
Scan order                  : Top Field First
Bits/(Pixel*Frame)          : 0.280
Stream size                 : 38.9 GiB (100%)
Default                     : Yes
Forced                      : No
Color range                 : Limited
Color primaries             : BT.709
Transfer characteristics    : BT.709
Matrix coefficients         : BT.709

Audio
ID                          : 2
Format                      : MPEG Audio
Format version              : Version 1
Format profile              : Layer 2
Format settings             : Dual mono
Codec ID                    : A_MPEG/L2
Codec ID/Hint               : MP2
Duration                    : 3 h 11 min
Bit rate mode               : Constant
Bit rate                    : 128 kb/s
Channel(s)                  : 2 channels
Sampling rate               : 48.0 kHz
Frame rate                  : 41.667 FPS (1152 SPF)
Compression mode            : Lossy
Stream size                 : 175 MiB (0%)
Language                    : English
Default                     : Yes
Forced                      : No

Menu
00:55:28.000                : en:Detroit Rock City
00:59:50.000                : en:Shout It Out Loud
01:03:43.000                : en:Deuce
01:08:30.000                : en:Say Yeah
01:13:09.000                : en:I Love It Loud
01:16:34.000                : en:Heaven's on Fire
01:20:27.000                : en:Tears Are Falling
01:24:17.000                : en:War Machine
01:29:32.000                : en:Lick It Up
01:36:46.000                : en:Calling Dr. Love
01:40:28.000                : en:100,000 Years
01:53:53.000                : en:Cold Gin
01:57:18.000                : en:God of Thunder
02:11:40.000                : en:Psycho Circus
02:16:55.000                : en:Parasite
02:22:42.000                : en:Love Gun
02:28:29.000                : en:I Was Made for Lovin' You
02:35:56.000                : en:Black Diamond
02:43:03.000                : en:Beth
02:48:08.000                : en:Strutter
02:52:41.000                : en:Do You Love Me?
02:59:47.000                : en:Rock and Roll All Nite

Download:

https://subyshare.com/hrbvfdlpcqu9/KISS.2020.Goodbye.part01.rar.html
https://subyshare.com/39775h2mgjjb/KISS.2020.Goodbye.part02.rar.html
https://subyshare.com/86416u7cbi8s/KISS.2020.Goodbye.part03.rar.html
https://subyshare.com/eo41dx53eaj9/KISS.2020.Goodbye.part04.rar.html
https://subyshare.com/oracna7mz4k8/KISS.2020.Goodbye.part05.rar.html
https://subyshare.com/5jukuph9k6u8/KISS.2020.Goodbye.part06.rar.html
https://subyshare.com/cwhgib9khzzw/KISS.2020.Goodbye.part07.rar.html
https://subyshare.com/z8fxpy74soa3/KISS.2020.Goodbye.part08.rar.html
https://subyshare.com/umbsy0vxziz2/KISS.2020.Goodbye.part09.rar.html
https://subyshare.com/ardjg4fyf3th/KISS.2020.Goodbye.part10.rar.html
https://subyshare.com/ku6sw320roqz/KISS.2020.Goodbye.part11.rar.html
https://subyshare.com/xsjgr3tu3unx/KISS.2020.Goodbye.part12.rar.html
https://subyshare.com/x51t676b45nh/KISS.2020.Goodbye.part13.rar.html
https://subyshare.com/dqubi1sy9sb4/KISS.2020.Goodbye.part14.rar.html
https://subyshare.com/ywe6fd8zbd7n/KISS.2020.Goodbye.part15.rar.html
https://subyshare.com/m8wcjvps9ncy/KISS.2020.Goodbye.part16.rar.html
https://subyshare.com/o34k26j1wnpp/KISS.2020.Goodbye.part17.rar.html
https://subyshare.com/ie090p2r9b8c/KISS.2020.Goodbye.part18.rar.html
https://subyshare.com/fb5ohss4nl4t/KISS.2020.Goodbye.part19.rar.html
https://subyshare.com/04pyvsau4ztx/KISS.2020.Goodbye.part20.rar.html
https://subyshare.com/og2riz0nlctu/KISS.2020.Goodbye.part21.rar.html

%d bloggers like this: