Skip to content

King Crimson: THRAK (1995/2015) [40th Anniversary 2-Disc Edition] Blu-ray 1080p AVC DTS-HD 5.1

Artist: King Crimson
Title: Thrak – 40th Anniversary – Live & Studio Recordings 1994-1997

Released: 1995/2015
Genre: Rock, Prog Rock, Art Rock, Avant-Prog
Artist: Robert Fripp (guitar, mellotron, Soundscapes), Adrian Belew (guitar, lead vocals), Tony Levin (bass guitar, Chapman Stick, electric upright bass, backing vocals), Trey Gunn (Chapman Stick, Warr guitar, backing vocals) , Bill Bruford (drums), Pat Mastelotto (percussion)

Quality: Blu-ray Audio & Video
Video (Disc#1): MPEG-4 AVC 3000 kbps / 1080p / 23,976 fps / 16:9 / High Profile 4.1
Video (Disc#2): MPEG-4 AVC ~10000 kbps / 1080p / 23,976 fps / 16:9 / High Profile 4.1
Audio: English DTS-HD MA 5.1 / 96 (48) kHz / 7143 (5555) kbps / 24-bit (DTS Core: 5.1 / 48 kHz / 1509 kbps / 24-bit)
Audio: English LPCM 5.1 / 96 (48) kHz / 13824 (6912) kbps / 24-bit
Audio: English LPCM 2.0 / 96 (48) kHz / 4608 (2304) kbps / 24-bit
Size: 86 GiB

The 1994 return of King Crimson was timed perfectly, matching, in no particular order, one of the peak periods for CD sales, a time of great variety of radio formats in the USA, the growth of a number of bands who pointed eagerly to the influence of King Crimson – especially of the 1972-74 band – a more positive critical reception for the band, following the remasters of the catalogue, Frame by Frame and Great Deceiver boxed sets supervised by Robert Fripp. Such timing not only benefited from the release of the various musicians from their other musical commitments, but in Robert Fripp’s case, the ultimately successful battle to regain control of King Crimson’s catalogue.
Recorded at Peter Gabriel’s RealWorld studios THRAK was released in 1995 and followed by tours in Europe, Japan and the USA. In the USA Crimson joined the Horde tour for 1995 – among a floating line-up that included Lenny Kravitz, The Black Crowes and Ziggy Marley. Thrak and its accompanying tours managed the task of appealing to older Crimson fans, while allowing the band to develop a whole new audience – perhaps unsurprisingly, as many of the musical ideas initially formulated by Crimson lineups of the 70s and 80s had been absorbed, extended and re-presented in a new light by bands directly influenced by earlier Crimson albums and performances.
Had THRAK merely reiterated those ideas most fans would, without doubt, have been happy with the outcome, but a key element in the evolution of Crimson’s music and history has been the band’s unwillingness to simply go on performing and recording for the sake of it. Robert Fripp places great importance on the fact that Crimson only operates when there is music that demands a King Crimson to perform it. This ability to walk away from the group at peak points artistically and commercially (as with the 70s and 80s lineups), is one of the band’s great strengths. It allows for the periodic reinvention of the band and ensures that innovation is a driving factor whenever the group does appear.
THRAK has all the hallmarks of a classic album – an album that challenged audience expectations when released, yet still sounds exciting now. For the band’s many fans, it rates comparison with the best of King Crimson’s studio albums, no mean feat given the quality and status of the likes of In The Court of the Crimson King (1969), Red (1974) and Discipline (1981).
The newly mixed stereo of THRAK was described as “transformative” by Robert Fripp. It’s also no exaggeration to state that this band can’t be fully appreciated and understood until you hear the roar of THRAK emerging from six speakers.
Twenty years on from its original release, THRAK remains one of the most powerful studio albums of the period.

Blu-Ray#1 :: The most comprehensive Hi-Res audio only disc yet assembled features three complete albums with 5.1 Surround Sound mixes: THRAK, ATTAKcATHRAK and Kcensington THRAK. These three albums also appear in Hi-Res stereo – THRAK in both its original and new stereo mixes – plus a further three complete albums are included in Hi-Res stereo, JurassiKc THRAK, THRAKaTTAKand& the official live bootleg of the double trio in Argentina: B’Boom.
  — THRAK 2015
  — ATTAKcATHRAK
  — THRAK Original Mix
  — THRaKaTTaK
  — Kcensington THRAK
  — B’Boom
  — JurassiKc THRAK

Blu-Ray#2 :: features an audio/visual feast: A complete concert filmed live at The Warfield Theatre, San Francisco from 1995 – previously unreleased – with all footage newly transferred from the original tapes, mastered for high definition and 5.1 Surround Sound.
  The live footage from the 1995 Live in Japan performance – all footage newly transferred from the original tapes, mastered for High Definition with the original 5.1 Surround Sound remastered.
  Tony’s Road Movies – The band on the road as filmed by Tony Levin – all footage newly mastered for High Definition and featuring a soundtrack of previously unreleased material drawn from the band’s earliest rehearsals in 1994 up-mixed to Surround Sound
  The EPK of the making of the THRAK album at Peter Gabriel’s RealWorld Studios with newly mixed Surround Sound audio.
  Additionally, this disc is being built to include a further unique feature whereby, with a press of a button, the disc will function as a pure audio disc for all audio material featured in the audio/video section.
  — Live At The Warfield Thearte, San Francisco, CA June 26, 1995
  — Live At The Nakano Sun Plaza, Tokyo, Japan October 5 & 6, 1995
  — Tony’s Road Movies
  — THRAK EPK

BDInfo Disc1

DISC INFO:

Disc Title:     THRAK_BD_1
Disc Size:      47 533 832 184 bytes
Protection:     AACS
BD-Java:        Yes
BDInfo:         0.5.8

PLAYLIST REPORT:

Name:                   00006.MPLS
Length:                 1:42:26.932 (h:m:s.ms)
Size:                   14 645 118 336 bytes
Total Bitrate:          19,06 Mbps

VIDEO:

Codec                   Bitrate             Description    
-----                   -------             -----------    
MPEG-4 AVC Video        3000 kbps           1080p / 23,976 fps / 16:9 / High Profile 4.1

AUDIO:

Codec                           Language        Bitrate         Description    
-----                           --------        -------         -----------    
LPCM Audio                      English         2304 kbps       2.0 / 48 kHz / 2304 kbps / 24-bit
DTS-HD Master Audio             English         5555 kbps       5.1 / 48 kHz / 5555 kbps / 24-bit (DTS Core: 5.1 / 48 kHz / 1509 kbps / 24-bit)
LPCM Audio                      English         6912 kbps       5.1 / 48 kHz / 6912 kbps / 24-bit

FILES:

Name            Time In         Length          Size            Total Bitrate  
----            -------         ------          ----            -------------  
00006.M2TS      0:00:00.000     1:42:26.932     14 645 118 336  19 060

PLAYLIST REPORT:

Name:                   00002.MPLS
Length:                 0:56:19.626 (h:m:s.ms)
Size:                   12 905 297 280 bytes
Total Bitrate:          30,55 Mbps

VIDEO:

Codec                   Bitrate             Description    
-----                   -------             -----------    
MPEG-4 AVC Video        3000 kbps           1080p / 23,976 fps / 16:9 / High Profile 4.1

AUDIO:

Codec                           Language        Bitrate         Description    
-----                           --------        -------         -----------    
LPCM Audio                      English         4608 kbps       2.0 / 96 kHz / 4608 kbps / 24-bit
DTS-HD Master Audio             English         7143 kbps       5.1 / 96 kHz / 7143 kbps / 24-bit (DTS Core: 5.1 / 48 kHz / 1509 kbps / 24-bit)
LPCM Audio                      English         13824 kbps      5.1 / 96 kHz / 13824 kbps / 24-bit

FILES:

Name            Time In         Length          Size            Total Bitrate  
----            -------         ------          ----            -------------  
00002.M2TS      0:00:00.000     0:56:19.626     12 905 297 280  30 548

BDInfo Disc2

DISC INFO:

Disc Title:     THRAK_BD_2
Disc Size:      44 803 937 940 bytes
Protection:     AACS
BD-Java:        Yes
BDInfo:         0.5.8

PLAYLIST REPORT:

Name:                   00003.MPLS
Length:                 1:41:48.102 (h:m:s.ms)
Size:                   20 318 124 864 bytes
Total Bitrate:          26,61 Mbps

VIDEO:

Codec                   Bitrate             Description    
-----                   -------             -----------    
MPEG-4 AVC Video        9998 kbps           1080p / 23,976 fps / 16:9 / High Profile 4.1

AUDIO:

Codec                           Language        Bitrate         Description    
-----                           --------        -------         -----------    
LPCM Audio                      English         2304 kbps       2.0 / 48 kHz / 2304 kbps / 24-bit
DTS-HD Master Audio             English         5784 kbps       5.1 / 48 kHz / 5784 kbps / 24-bit (DTS Core: 5.1 / 48 kHz / 1509 kbps / 24-bit)
LPCM Audio                      English         6912 kbps       5.1 / 48 kHz / 6912 kbps / 24-bit

FILES:

Name            Time In         Length          Size            Total Bitrate  
----            -------         ------          ----            -------------  
00003.M2TS      0:00:00.000     1:41:48.102     20 318 124 864  26 611          


PLAYLIST REPORT:

Name:                   00002.MPLS
Length:                 1:29:51.386 (h:m:s.ms)
Size:                   17 231 539 584 bytes
Total Bitrate:          25,57 Mbps

VIDEO:

Codec                   Bitrate             Description    
-----                   -------             -----------    
MPEG-4 AVC Video        10000 kbps          1080p / 23,976 fps / 16:9 / High Profile 4.1

AUDIO:

Codec                           Language        Bitrate         Description    
-----                           --------        -------         -----------    
LPCM Audio                      English         2304 kbps       2.0 / 48 kHz / 2304 kbps / 24-bit
DTS-HD Master Audio             English         4783 kbps       5.1 / 48 kHz / 4783 kbps / 24-bit (DTS Core: 5.1 / 48 kHz / 1509 kbps / 24-bit)
LPCM Audio                      English         6912 kbps       5.1 / 48 kHz / 6912 kbps / 24-bit

FILES:

Name            Time In         Length          Size            Total Bitrate  
----            -------         ------          ----            -------------  
00002.M2TS      0:00:00.000     1:29:51.386     17 231 539 584  25 569

PLAYLIST REPORT:

Name:                   00004.MPLS
Length:                 0:17:21.957 (h:m:s.ms)
Size:                   3 357 195 648 bytes
Total Bitrate:          25,78 Mbps

VIDEO:

Codec                   Bitrate             Description    
-----                   -------             -----------    
MPEG-4 AVC Video        9995 kbps           1080p / 23,976 fps / 16:9 / High Profile 4.1

AUDIO:

Codec                           Language        Bitrate         Description    
-----                           --------        -------         -----------    
LPCM Audio                      English         2304 kbps       2.0 / 48 kHz / 2304 kbps / 24-bit
DTS-HD Master Audio             English         4985 kbps       5.1 / 48 kHz / 4985 kbps / 24-bit (DTS Core: 5.1 / 48 kHz / 1509 kbps / 24-bit)
LPCM Audio                      English         6912 kbps       5.1 / 48 kHz / 6912 kbps / 24-bit

FILES:

Name            Time In         Length          Size            Total Bitrate  
----            -------         ------          ----            -------------  
00004.M2TS      0:00:00.000     0:17:21.957     3 357 195 648   25 775

PLAYLIST REPORT:

Name:                   00005.MPLS
Length:                 0:16:39.081 (h:m:s.ms)
Size:                   3 871 294 848 bytes
Total Bitrate:          31,00 Mbps

VIDEO:

Codec                   Bitrate             Description    
-----                   -------             -----------    
MPEG-4 AVC Video        14948 kbps          1080p / 23,976 fps / 16:9 / High Profile 4.1

AUDIO:

Codec                           Language        Bitrate         Description    
-----                           --------        -------         -----------    
LPCM Audio                      English         2304 kbps       2.0 / 48 kHz / 2304 kbps / 24-bit
DTS-HD Master Audio             English         5037 kbps       5.1 / 48 kHz / 5037 kbps / 24-bit (DTS Core: 5.1 / 48 kHz / 1509 kbps / 24-bit)
LPCM Audio                      English         6912 kbps       5.1 / 48 kHz / 6912 kbps / 24-bit

FILES:

Name            Time In         Length          Size            Total Bitrate  
----            -------         ------          ----            -------------  
00005.M2TS      0:00:00.000     0:16:39.081     3 871 294 848   30 998

Disc1 (Blu-Ray Audio):

http://subyshare.com/m61udmozvapu/THRAKBD1.part01.rar.html
http://subyshare.com/whbbwzcf2gm7/THRAKBD1.part02.rar.html
http://subyshare.com/li1idrjqlxuy/THRAKBD1.part03.rar.html
http://subyshare.com/kllgayhd3zrm/THRAKBD1.part04.rar.html
http://subyshare.com/j153k2rmifwe/THRAKBD1.part05.rar.html
http://subyshare.com/5q5ujeklfsga/THRAKBD1.part06.rar.html
http://subyshare.com/oz30tlnrucuk/THRAKBD1.part07.rar.html
http://subyshare.com/0zbim59x5jic/THRAKBD1.part08.rar.html
http://subyshare.com/56p9n93r7mh7/THRAKBD1.part09.rar.html
http://subyshare.com/srgtnyqgchi0/THRAKBD1.part10.rar.html
http://subyshare.com/qmwpajl1wkwa/THRAKBD1.part11.rar.html
http://subyshare.com/miirxtdd58ha/THRAKBD1.part12.rar.html
http://subyshare.com/x2qdhjdgj3yz/THRAKBD1.part13.rar.html
http://subyshare.com/y90edhlpprgw/THRAKBD1.part14.rar.html
http://subyshare.com/wlvdlenmk39r/THRAKBD1.part15.rar.html
http://subyshare.com/lguv0oi6da2k/THRAKBD1.part16.rar.html
http://subyshare.com/pwnhxvjddfwj/THRAKBD1.part17.rar.html
http://subyshare.com/6t298swtwp4l/THRAKBD1.part18.rar.html
http://subyshare.com/q3e8qc4cek5f/THRAKBD1.part19.rar.html
http://subyshare.com/93afzttdhito/THRAKBD1.part20.rar.html
http://subyshare.com/lf90c1nwyg7q/THRAKBD1.part21.rar.html
http://subyshare.com/av8ri0dqkzl8/THRAKBD1.part22.rar.html
http://subyshare.com/mgtpiht427id/THRAKBD1.part23.rar.html
http://subyshare.com/jgjeeau1ftvp/THRAKBD1.part24.rar.html

or

https://filejoker.net/ehg208yxnhfb/THRAKBD1.part01.rar
https://filejoker.net/h4dm2c7klm1j/THRAKBD1.part02.rar
https://filejoker.net/6j1hef8sralr/THRAKBD1.part03.rar
https://filejoker.net/oa6ijtljfwo0/THRAKBD1.part04.rar
https://filejoker.net/5rhd3ohft1vf/THRAKBD1.part05.rar
https://filejoker.net/yxbl69cq85vl/THRAKBD1.part06.rar
https://filejoker.net/1w6bacmn4pbf/THRAKBD1.part07.rar
https://filejoker.net/bp4har3p4eg7/THRAKBD1.part08.rar
https://filejoker.net/eswzmqzu7664/THRAKBD1.part09.rar
https://filejoker.net/je2artk5nd89/THRAKBD1.part10.rar
https://filejoker.net/lubc92wvklef/THRAKBD1.part11.rar
https://filejoker.net/ew95toki6ub7/THRAKBD1.part12.rar
https://filejoker.net/n0q15ll1pb3c/THRAKBD1.part13.rar
https://filejoker.net/7vn3zeorwrjm/THRAKBD1.part14.rar
https://filejoker.net/qwmdsbtqjyjf/THRAKBD1.part15.rar
https://filejoker.net/k9iaf6ajw93y/THRAKBD1.part16.rar
https://filejoker.net/xk8tlgmpsudw/THRAKBD1.part17.rar
https://filejoker.net/aggr0y564uuo/THRAKBD1.part18.rar
https://filejoker.net/92yxuzla2juh/THRAKBD1.part19.rar
https://filejoker.net/9ubhmycuicmo/THRAKBD1.part20.rar
https://filejoker.net/zsoucfvcgbuz/THRAKBD1.part21.rar
https://filejoker.net/dm8b192hxr4t/THRAKBD1.part22.rar
https://filejoker.net/7zxnd4y8umwr/THRAKBD1.part23.rar
https://filejoker.net/v5ru0u5quqf6/THRAKBD1.part24.rar

Disc2 (Video):

http://subyshare.com/3yjd68eqniks/THRAKBD2.part01.rar.html
http://subyshare.com/l8nquppvhtac/THRAKBD2.part02.rar.html
http://subyshare.com/79f6pubylx85/THRAKBD2.part03.rar.html
http://subyshare.com/6s8zeiio1e13/THRAKBD2.part04.rar.html
http://subyshare.com/87lwy5ekhmxk/THRAKBD2.part05.rar.html
http://subyshare.com/os11723zmuvf/THRAKBD2.part06.rar.html
http://subyshare.com/rtrbjut59z1a/THRAKBD2.part07.rar.html
http://subyshare.com/7bcjrlw3kmyc/THRAKBD2.part08.rar.html
http://subyshare.com/gxjswtn150d6/THRAKBD2.part09.rar.html
http://subyshare.com/ei06mzqw0fqf/THRAKBD2.part10.rar.html
http://subyshare.com/pqx5hu8v42ae/THRAKBD2.part11.rar.html
http://subyshare.com/j33o03zaik0u/THRAKBD2.part12.rar.html
http://subyshare.com/vcjyzom3q7af/THRAKBD2.part13.rar.html
http://subyshare.com/m0zwvjowkpac/THRAKBD2.part14.rar.html
http://subyshare.com/3chr5qqkq5b4/THRAKBD2.part15.rar.html
http://subyshare.com/s70n4vwqc2le/THRAKBD2.part16.rar.html
http://subyshare.com/twwsh9jh1o9b/THRAKBD2.part17.rar.html
http://subyshare.com/uuxg2gmnagz6/THRAKBD2.part18.rar.html
http://subyshare.com/9swvoladfo0n/THRAKBD2.part19.rar.html
http://subyshare.com/mxk48el6295l/THRAKBD2.part20.rar.html
http://subyshare.com/i1n2j1z6id49/THRAKBD2.part21.rar.html
http://subyshare.com/608gq0ess5gg/THRAKBD2.part22.rar.html

or

https://filejoker.net/sopje4yzj2eb/THRAKBD2.part01.rar
https://filejoker.net/7kdwjmgmujke/THRAKBD2.part02.rar
https://filejoker.net/l2d34g0dj1zq/THRAKBD2.part03.rar
https://filejoker.net/w6p4iwxbatj6/THRAKBD2.part04.rar
https://filejoker.net/44mcjsa9g0r4/THRAKBD2.part05.rar
https://filejoker.net/m7udme41qh7z/THRAKBD2.part06.rar
https://filejoker.net/dm75m217kqv0/THRAKBD2.part07.rar
https://filejoker.net/m9wbf0qaeu0m/THRAKBD2.part08.rar
https://filejoker.net/p5v7covw6j06/THRAKBD2.part09.rar
https://filejoker.net/kn128lflwly6/THRAKBD2.part10.rar
https://filejoker.net/7fd0lyu8p97o/THRAKBD2.part11.rar
https://filejoker.net/po3hs5gzmtij/THRAKBD2.part12.rar
https://filejoker.net/mtwd265wkk5k/THRAKBD2.part13.rar
https://filejoker.net/7b9kmry63f7k/THRAKBD2.part14.rar
https://filejoker.net/hqg2bu3lus7x/THRAKBD2.part15.rar
https://filejoker.net/g2v4ze3f253n/THRAKBD2.part16.rar
https://filejoker.net/hu9nr2entiry/THRAKBD2.part17.rar
https://filejoker.net/c3rgqctvbrny/THRAKBD2.part18.rar
https://filejoker.net/6cpswqmbz0yr/THRAKBD2.part19.rar
https://filejoker.net/h3sseypq5tw4/THRAKBD2.part20.rar
https://filejoker.net/mmr8opeoj2wk/THRAKBD2.part21.rar
https://filejoker.net/z6lub0t6arsf/THRAKBD2.part22.rar

%d bloggers like this: