Skip to content

Jan Lisiecki & Academy of St. Martin in the Fields – Beethoven: Complete Piano Concertos (2020) Blu-ray 1080i AVC DTS-HD MA 5.1 + BDRip 720p/1080p

Title: Jan Lisiecki & Academy of St. Martin in the Fields – Beethoven: Complete Piano Concertos (Live at Konzerthaus Berlin 2018)
Release Date: 2020
Genre: Classical

Production/Label: Deutsche Grammophon
Duration: 03:07:42
Quality: Blu-ray
Container: BDMV
Video codec: AVC
Audio codec: DTS, PCM
Video: MPEG-4 AVC Video / 24963 kbps / 1080i / 29.970 fps / 16:9 / High Profile 4.1
Audio #1: LPCM Audio / 2.0 / 48 kHz / 2304 kbps / 24-bit
Audio #2: DTS-HD Master Audio / 5.1 / 48 kHz / 3679 kbps / 24-bit (DTS Core: 5.1 / 48 kHz / 1509 kbps / 24-bit)
Size: 43.05 GB

Jan Lisiecki was hailed by the critics for his live performances of Beethoven’s five piano concerts at the Konzerthaus Berlin:

“A sparkling performance that seems refreshingly spontaneous – yet is intellectually perfectly formed” (Der Tagesspiegel)

After his successful album “Mendelssohn”, the Canadian pianist now dedicates his next album to the five piano concertos by Ludwig van Beethoven – once again in the double role as soloist and conductor, accompanied by the Academy of St Martin in the Fields.

Jan Lisiecki believes that “Beethoven certainly did not conceive the 5 concertos as a cycle. In spite of this, they belong together because they reveal such a differentiated picture of Beethoven, starting with the first two concertos”, which still disclose the legacy of Mozart, the very different works No. 3 and 4 up to the majestic E flat major concerto No. 5.

Beethoven’s Piano Concerto No. 4 in G major, Op. 58 has played a significant role in Jan Lisiecki’s career. In 2013, he performed the work with Orchestra Mozart under Claudio Abbado in Bologna, replacing an indisposed Martha Argerich at very short notice.

The album includes the concerto the young Canadian pianist made his Carnegie Hall debut with – together with the Philadelphia Orchestra under Yannick Nézet-Séguin.

Tracklist

Live at Konzerthaus Berlin / 2018

Piano Concerto No.1 in C major, Op.15
1. Opening
2. 1. Allegro con brio
3. 2. Largo
4. 3. Rondo Allegro scherzando
5. Applause & Credits (Piano Concerto No. 1) (Live at Konzerthaus Berlin / 2018)

Piano Concerto No. 2 in B-flat major, Op. 19
6. Opening
7. 1. Allegro con brio
8. 2. Adagio
9. 3. Rondo Molto allegro
10. Applause & Credits (Piano Concerto No. 2) (Live at Konzerthaus Berlin / 2018)

Piano Concerto No. 3 in C minor, Op. 37
11. Opening
12. 1. Allegro con brio
13. 2. Largo
14. 3. Rondo Allegro
15. Applause & Credits

Piano Concerto No.4 in G, Op.58
16. Opening
17. 1. Allegro moderato
18. 2. Andante con moto
19. 3. Rondo Vivace
20. Applause & Credits

Piano Concerto No.5 in E flat major Op.73 -“Emperor”
21. Opening
22. 1. Allegro
23. 2. Adagio un poco mosso
24. 3. Rondo Allegro
25. Applause & Credits

pic pic pic pic
pic pic pic pic

DISC INFO:

Disc Title:     JAN LISIECKI - COMPLETE PIANO CONCERTOS
Disc Label:     Beethoven Complete Piano Concertos Blu-ray 2018
Disc Size:      46,220,045,097 bytes
Protection:     AACS
BDInfo:         0.7.5.5

PLAYLIST REPORT:

Name:                   00000.MPLS
Length:                 3:07:42.584 (h:m:s.ms)
Size:                   45,983,074,560 bytes
Total Bitrate:          32.66 Mbps

VIDEO:

Codec                   Bitrate             Description
-----                   -------             -----------
MPEG-4 AVC Video        24963 kbps          1080i / 29.970 fps / 16:9 / High Profile 4.1

AUDIO:

Codec                           Language        Bitrate         Description
-----                           --------        -------         -----------
LPCM Audio                      Undetermined    2304 kbps       2.0 / 48 kHz /  2304 kbps / 24-bit
DTS-HD Master Audio             Undetermined    3679 kbps       5.1 / 48 kHz /  3679 kbps / 24-bit (DTS Core: 5.1 / 48 kHz /  1509 kbps / 24-bit)

FILES:

Name            Time In         Length          Size            Total Bitrate
----            -------         ------          ----            -------------
00000.M2TS      0:00:00.000     0:40:15.012     9,855,108,480   32,646
00001.M2TS      0:40:15.012     0:31:45.003     7,789,256,064   32,710
00002.M2TS      1:12:00.015     0:38:03.014     9,324,961,152   32,675
00009.M2TS      1:50:03.029     0:35:31.996     8,705,099,136   32,664
00010.M2TS      2:25:35.026     0:42:01.986     10,305,826,176  32,691
00008.M2TS      3:07:37.012     0:00:05.238     2,811,264       4,266
00007.M2TS      3:07:42.250     0:00:00.333     12,288          295
Beethoven Complete Piano Concertos Jan Lisiecki 2018 RATED 720p MBluRay x264-LiQUiD

Beethoven:
|Complete Piano Concertos
|(Jan Lisiecki): | 09.03.2021 [31.01.2020]
| Classical
| Instrumental Piano
| Composition

| 1280x720 [crf17]
| 3615 [29.970]
| AC3 [5.1]
| 03:07:00
| BLURAY [25.0]
| 5.68 GB: Booklet
Beethoven Complete Piano Concertos Jan Lisiecki 2018 RATED 1080p MBluRay x264-LiQUiD

Beethoven:
|Complete Piano Concertos
|(Jan Lisiecki): | 09.03.2021 [31.01.2020]
| Classical
| Instrumental Piano
| Composition

| 1920x1080 [crf17]
| 7909 [29.970]
| DTS:X [5.1]
| FLAC [2.0]
| 03:07:00
| BLURAY [25.0]
| 16.9 GB: Booklet
Cover

| https://t.ly/41jd
| https://t.ly/J3TG
| https://t.ly/DqBd
| https://t.ly/16iM

Blu-ray Disc:

https://linksafe.xyz/get/HTkpVJjwSH

 

BDRip 720p (AC3 5.1)

https://subyshare.com/ijkyhrg8hwke/Beethoven.Complete.Piano.Concertos.Jan.Lisiecki.2018.RATED.720p.MBluRay.x264-LiQUiD.part1.rar.html
https://subyshare.com/r7hh03v8g9u0/Beethoven.Complete.Piano.Concertos.Jan.Lisiecki.2018.RATED.720p.MBluRay.x264-LiQUiD.part2.rar.html
https://subyshare.com/ssqgl7s3mcjt/Beethoven.Complete.Piano.Concertos.Jan.Lisiecki.2018.RATED.720p.MBluRay.x264-LiQUiD.part3.rar.html
https://subyshare.com/2mi8sgcyu3fe/Beethoven.Complete.Piano.Concertos.Jan.Lisiecki.2018.RATED.720p.MBluRay.x264-LiQUiD.part4.rar.html
https://subyshare.com/5tf99rtyttlx/Beethoven.Complete.Piano.Concertos.Jan.Lisiecki.2018.RATED.720p.MBluRay.x264-LiQUiD.part5.rar.html

BDRip 1080p (DTS-HD MA 5.1 & FLAC 2.0)

https://linksafe.xyz/get/zGg2fcMwQM

 

%d bloggers like this: