Skip to content

iHeartRadio Country Festival 2015-05-27 1080i HDTV DD5.1 MPEG2-TrollHD

Country music’s biggest superstars hit the stage for iHeartRadio’s second annual Country Festival. The two-hour special hosted by Jennifer Nettles and Darius Rucker features an incredible lineup of country’s favorite stars as well as an all-access pass backstage. Tim McGraw, Brad Paisley, Rascal Flatts, Darius Rucker, Little Big Town, Dierks Bentley, Brantley Gilbert, Justin Moore, The Band Perry, iHeartRadio’s On The Verge artist Sam Hunt and Tyler Farr as well as special guest appearances by Bobby Bones, Big & Rich, Cody Alan, Brooklyn Decker, Craig Robinson, Eric Decker and Jessie James Decker.

Free Image Hosting at imageshack.com

General
ID                                       : 1 (0x1)
Complete name                            : D:\iHeartRadio_Country_Festival-2015-05-27_1080i_HDTV_DD5.1_MPEG2-TrollHD\iHeartRadio Country Festival-2015-05-27 1080i HDTV DD5.1 MPEG2-TrollHD.ts
Format                                   : MPEG-TS
File size                                : 10.4 GiB
Duration                                 : 1h 24mn
Overall bit rate mode                    : Variable
Overall bit rate                         : 17.5 Mbps
Law rating                               : TV-PG (L)

Video
ID                                       : 7541 (0x1D75)
Menu ID                                  : 1 (0x1)
Format                                   : MPEG Video
Format version                           : Version 2
Format profile                           : Main@High
Format settings, BVOP                    : Yes
Format settings, Matrix                  : Custom
Format settings, GOP                     : Variable
Codec ID                                 : 2
Duration                                 : 1h 24mn
Bit rate mode                            : Variable
Bit rate                                 : 16.0 Mbps
Maximum bit rate                         : 24.0 Mbps
Width                                    : 1 920 pixels
Height                                   : 1 080 pixels
Display aspect ratio                     : 16:9
Active Format Description                : Full frame 16:9 image
Frame rate                               : 29.970 fps
Color space                              : YUV
Chroma subsampling                       : 4:2:0
Bit depth                                : 8 bits
Scan type                                : Interlaced
Scan order                               : Top Field First
Compression mode                         : Lossy
Bits/(Pixel*Frame)                       : 0.258
Time code of first frame                 : 00:00:00;00
Time code source                         : Group of pictures header
Stream size                              : 9.50 GiB (92%)

Audio #1
ID                                       : 7542 (0x1D76)
Menu ID                                  : 1 (0x1)
Format                                   : AC-3
Format/Info                              : Audio Coding 3
Mode extension                           : CM (complete main)
Format settings, Endianness              : Big
Codec ID                                 : 129
Duration                                 : 1h 24mn
Bit rate mode                            : Constant
Bit rate                                 : 384 Kbps
Channel(s)                               : 6 channels
Channel positions                        : Front: L C R, Side: L R, LFE
Sampling rate                            : 48.0 KHz
Bit depth                                : 16 bits
Compression mode                         : Lossy
Delay relative to video                  : 25ms
Stream size                              : 233 MiB (2%)
Language                                 : English

Audio #2
ID                                       : 7543 (0x1D77)
Menu ID                                  : 1 (0x1)
Format                                   : AC-3
Format/Info                              : Audio Coding 3
Mode extension                           : CM (complete main)
Format settings, Endianness              : Big
Codec ID                                 : 129
Duration                                 : 1h 24mn
Bit rate mode                            : Constant
Bit rate                                 : 192 Kbps
Channel(s)                               : 2 channels
Channel positions                        : Front: L R
Sampling rate                            : 48.0 KHz
Bit depth                                : 16 bits
Compression mode                         : Lossy
Delay relative to video                  : 14ms
Stream size                              : 117 MiB (1%)
Language                                 : Spanish

Text #1
ID                                       : 7541 (0x1D75)-CC1
Menu ID                                  : 1 (0x1)
Format                                   : EIA-608
Muxing mode                              : A/53 / DTVCC Transport
Muxing mode, more info                   : Muxed in Video #1
Duration                                 : 1h 24mn
Bit rate mode                            : Constant
Stream size                              : 0.00 Byte (0%)

Text #2
ID                                       : 7541 (0x1D75)-1
Menu ID                                  : 1 (0x1)
Format                                   : EIA-708
Muxing mode                              : A/53 / DTVCC Transport
Muxing mode, more info                   : Muxed in Video #1
Duration                                 : 1h 24mn
Bit rate mode                            : Constant
Stream size                              : 0.00 Byte (0%)

Download:

http://subyshare.com/hmsgvqv2j951/iHeartRadio_Country_Festival-2015-05-27_1080i_HDTV_DD5.1_MPEG2-TrollHD.part1.rar.html
http://subyshare.com/qdhngw0x3cve/iHeartRadio_Country_Festival-2015-05-27_1080i_HDTV_DD5.1_MPEG2-TrollHD.part2.rar.html
http://subyshare.com/uglel5mqnx4r/iHeartRadio_Country_Festival-2015-05-27_1080i_HDTV_DD5.1_MPEG2-TrollHD.part3.rar.html
http://subyshare.com/38d3bdhxpc9g/iHeartRadio_Country_Festival-2015-05-27_1080i_HDTV_DD5.1_MPEG2-TrollHD.part4.rar.html
http://subyshare.com/soadpntos6x9/iHeartRadio_Country_Festival-2015-05-27_1080i_HDTV_DD5.1_MPEG2-TrollHD.part5.rar.html
http://subyshare.com/aijb1vnwsjnf/iHeartRadio_Country_Festival-2015-05-27_1080i_HDTV_DD5.1_MPEG2-TrollHD.part6.rar.html
http://subyshare.com/sghq0fsvp9fq/iHeartRadio_Country_Festival-2015-05-27_1080i_HDTV_DD5.1_MPEG2-TrollHD.part7.rar.html
http://subyshare.com/kqghdw2cmvt8/iHeartRadio_Country_Festival-2015-05-27_1080i_HDTV_DD5.1_MPEG2-TrollHD.part8.rar.html

%d bloggers like this: