Skip to content

Helene Grimaud – Woodlands and beyond… (2020) Blu-ray 1080i AVC DTS-HD MA 5.0 + BDRip 720p/1080p

Title: Helene Grimaud – Woodlands and beyond…
Release Date: 2020
Genre: Classical

Production/Label:C MAJOR
Duration: 59:57
Quality: Blu-ray
Container: BDMV
Video codec: AVC
Audio codec: DTS, PCM
Video: MPEG-4 AVC Video / 29887 kbps / 1080i / 29.970 fps / 16:9 / High Profile 4.1
Audio#1: LPCM Audio / 2.0 / 48 kHz / 2304 kbps / 24-bit
Audio#2: DTS-HD Master Audio / 5.0 / 48 kHz / 3207 kbps / 24-bit (DTS Core: 5.0 / 48 kHz / 1152 kbps / 24-bit)
Size: 17.13 GB

Together with her creative and life partner, photographer Mat Hennek, French star pianist Helene Grimaud comes up with a multimedia concert project at the Grand Hall of Hamburg’s Elbphilharmonie. Grimaud’s virtuoso piano performance is accompanied by Hennek’s highly praised photo series Woodlands, which depicts genuine portraits of trees, the results of numerous hikes through various forests in Europe and the USA. With works by romantic and impressionist composers, such as Luciano Berio, Nitin Sawhney, Tōru Takemitsu, Franz Liszt and Claude Debussy, Grimaud leads her audience into the enchanting world of those various Woodlands and even beyond … “Grimaud is completely at ease, showing flawless clarity in her interpretations” (Die Welt).

Tracklist

1 Opening
2 Wasserklavier / Luciano Berio
3 Water – Transition 1 / Nitin Sawhney
4 Rain Tree Sketch II (1992) / Toru Takemitsu
5 Water – Transition 2 / Nitin Sawhney
6 Barcarolle Nr. 5 fis-moll op. 66 / Gabriel Faure
7 Water – Transition 3 / Nitin Sawhney
8 Jeux d’eau / Maurice Ravel
9 Water – Transition 4 / Nitin Sawhney
10 Iberia Nr. 1-12 – Almería / Isaac Albeniz
11 Water – Transition 5 / Nitin Sawhney
12 Années de pèlerinage, 3e année: Italie S 163 – Les jeux d’eau à la Villa d’Este / Franz Liszt
13 Water – Transition 6 / Nitin Sawhney
14 In the mists – 1. Andante / Leos Janacek
15 Water – Transition 7 / Nitin Sawhney
16 Préludes (12 Stücke für Klavier, Heft 1) – La cathédrale engloutie / Claude Debussy
17 Applause & Credits

pic pic pic pic
pic pic pic pic

DISC INFO:

Disc Title:     WOODLANDS AND BEYOND...
Disc Label:     Helene_Grimaud_Woodlands_and_Beyond_2017_COMPLETE_MBLURAY_MBLURAYFANS
Disc Size:      18,394,595,812 bytes
Protection:     AACS
BDInfo:         0.7.5.5

PLAYLIST REPORT:

Name:                   00009.MPLS
Length:                 0:59:07.210 (h:m:s.ms)
Size:                   16,515,945,216 bytes
Total Bitrate:          37.25 Mbps

VIDEO:

Codec                   Bitrate             Description
-----                   -------             -----------
MPEG-4 AVC Video        29887 kbps          1080i / 29.970 fps / 16:9 / High Profile 4.1

AUDIO:

Codec                           Language        Bitrate         Description
-----                           --------        -------         -----------
LPCM Audio                      Undetermined    2304 kbps       2.0 / 48 kHz /  2304 kbps / 24-bit
DTS-HD Master Audio             Undetermined    3207 kbps       5.0 / 48 kHz /  3207 kbps / 24-bit (DTS Core: 5.0 / 48 kHz /  1152 kbps / 24-bit)

FILES:

Name            Time In         Length          Size            Total Bitrate
----            -------         ------          ----            -------------
00001.M2TS      0:00:00.000     0:59:01.871     16,515,327,360  37,303
00004.M2TS      0:59:01.871     0:00:05.004     605,568         962
00000.M2TS      0:59:06.876     0:00:00.333     12,288          295
Helene.Grimaud.Woodlands.and.Beyond.2017.720p.MBLURAY.x264-MBLURAYFANS

TiTLE ........... = Helene Grimaud Woodlands and Beyond (2017)
RUNTiME ......... = 59 Minutes
RELEASE DATE .... = 27.11.2020
SOURCE .......... = 30,0 MB/s
ViDEO .......... = 1280x720 - x264 - CRF17 @ 4320 kbps
AUDiO ........... = English AC3 5.0 @ 640 kbps
SiZE ............ = 2097 MB
RELEASE NOTES

https://bluray-disc.de/blu-ray-filme/151143-woodlands_and_beyond
Helene.Grimaud.Woodlands.and.Beyond.2017.1080p.MBLURAY.x264-MBLURAYFANS

TiTLE ........... = Helene Grimaud Woodlands and Beyond (2017)
RUNTiME ......... = 59 Minutes
RELEASE DATE .... = 27.11.2020
SOURCE .......... = 30,0 MB/s
ViDEO .......... = 1920x1080 - x264 - CRF17 @ 13,2 MB/s
AUDiO ........... = English DTS XLL 5.0 @ 3.212 kbps (DTS-HD)
SiZE ............ = 6924 MB
RELEASE NOTES

https://bluray-disc.de/blu-ray-filme/151143-woodlands_and_beyond

Blu-ray Disc:

https://subyshare.com/230fgqsd2al3/Helene_Grimaud_Woodlands_and_Beyond_2017_COMPLETE_MBLURAY_MBLURAYFANS.part01.rar.html
https://subyshare.com/o8itvra3rmpg/Helene_Grimaud_Woodlands_and_Beyond_2017_COMPLETE_MBLURAY_MBLURAYFANS.part02.rar.html
https://subyshare.com/btq9p6cug5iu/Helene_Grimaud_Woodlands_and_Beyond_2017_COMPLETE_MBLURAY_MBLURAYFANS.part03.rar.html
https://subyshare.com/1arimpz7tgyh/Helene_Grimaud_Woodlands_and_Beyond_2017_COMPLETE_MBLURAY_MBLURAYFANS.part04.rar.html
https://subyshare.com/sek77andcfa5/Helene_Grimaud_Woodlands_and_Beyond_2017_COMPLETE_MBLURAY_MBLURAYFANS.part05.rar.html
https://subyshare.com/dcnqlfzfyrgh/Helene_Grimaud_Woodlands_and_Beyond_2017_COMPLETE_MBLURAY_MBLURAYFANS.part06.rar.html
https://subyshare.com/vzbotmo6y7lb/Helene_Grimaud_Woodlands_and_Beyond_2017_COMPLETE_MBLURAY_MBLURAYFANS.part07.rar.html
https://subyshare.com/jmyrtcn7earv/Helene_Grimaud_Woodlands_and_Beyond_2017_COMPLETE_MBLURAY_MBLURAYFANS.part08.rar.html
https://subyshare.com/f5rvhdh44z8t/Helene_Grimaud_Woodlands_and_Beyond_2017_COMPLETE_MBLURAY_MBLURAYFANS.part09.rar.html
https://subyshare.com/08o5o9drap8t/Helene_Grimaud_Woodlands_and_Beyond_2017_COMPLETE_MBLURAY_MBLURAYFANS.part10.rar.html
https://subyshare.com/glfbdalo9x8a/Helene_Grimaud_Woodlands_and_Beyond_2017_COMPLETE_MBLURAY_MBLURAYFANS.part11.rar.html
https://subyshare.com/u90lytkganmt/Helene_Grimaud_Woodlands_and_Beyond_2017_COMPLETE_MBLURAY_MBLURAYFANS.part12.rar.html
https://subyshare.com/apliquarwtyv/Helene_Grimaud_Woodlands_and_Beyond_2017_COMPLETE_MBLURAY_MBLURAYFANS.part13.rar.html

BDRip 720p

https://subyshare.com/mknj4qqee499/Helene.Grimaud.Woodlands.and.Beyond.2017.720p.MBLURAY.x264-MBLURAYFANS.part1.rar.html
https://subyshare.com/rb3h3nswbxxp/Helene.Grimaud.Woodlands.and.Beyond.2017.720p.MBLURAY.x264-MBLURAYFANS.part2.rar.html

BDRip 1080p (DTS-HD MA 5.0)

https://subyshare.com/yfma6xr1q99b/Helene.Grimaud.Woodlands.and.Beyond.2017.1080p.MBLURAY.x264-MBLURAYFANS.part1.rar.html
https://subyshare.com/zr89eh1j9gjx/Helene.Grimaud.Woodlands.and.Beyond.2017.1080p.MBLURAY.x264-MBLURAYFANS.part2.rar.html
https://subyshare.com/2nd13hxbqxi7/Helene.Grimaud.Woodlands.and.Beyond.2017.1080p.MBLURAY.x264-MBLURAYFANS.part3.rar.html
https://subyshare.com/rzb0c0f968wt/Helene.Grimaud.Woodlands.and.Beyond.2017.1080p.MBLURAY.x264-MBLURAYFANS.part4.rar.html
https://subyshare.com/xvszdtgb5838/Helene.Grimaud.Woodlands.and.Beyond.2017.1080p.MBLURAY.x264-MBLURAYFANS.part5.rar.html

%d bloggers like this: