Skip to content

Gustav Mahler – Symphonies Nos. 9 & 10 – Frankfurt Radio Symphony Orchestra, Paavo Jarvi (2015) Blu-ray 1080i AVC DTS-HD 5.1

Name: Gustav Mahler: Symphonies Nos. 9 & 10
Release year: 2008/2009
Genre: Classical
Directed by: Michael Ciniselli
Conductor: Paavo Järvi
Artist: Frankfurt Radio Symphony Orchstra (HR-Sinfonieorchester)

Issued: United States | C MAJOR
Duration: 1:57:45
Size: 36.49 GB

Gustav Mahler spent 1909 and 1910 working on his final two symphonies. The Ninth has gone down in history as the culmination of his symphonic output and a prophetic anticipation of musical modernism. But owing to his declining health, he had to stop work on the Tenth after a few months and was unable to resume it before his death. Only the first movement, included here, was orchestrated to a point where it can be performed without non-authorial additions. – The Mahler cycle by the Frankfurt Radio Symphony Orchestra under Paavo Järvi is appearing complete on DVD and Blu-ray on the C Major label and has already been internationally acclaimed as one of the most important Mahler projects of the new millennium.

Recorded at the Rheingau Musik Festival, 2011 (Symphony No. 7) and 2013 (Symphony No. 8).

PAAVO JÄRVI CONDUCTS MAHLER SYMPHONIES
  Tracklist:

1 Vorspann 00:27
  Sinfonie Nr. 9 D-Dur
2 1. Andante comodo 29:15
3 2. Im Tempo eines gemächlichen Ländlers: Etwas täp 16:45
4 3. Rondo-Burleske: Allegro assai. Sehr trotzig 12:57
5 4. Adagio 25:44
6 Applaus & Abspann 01:51
7 Vorspann 00:31
8 Sinfonie Nr. 10 Fis-Dur 28:12
9 Applaus & Abspann 01:50
10 Paavo’s Mahler: Introduction to Symphony No. 9 06:49
11 The project (Dokumentation) 11:41
Frankfurt Radio Symphony Orchestra
Paavo Järvi
, conductor
Recorded at the Rheingau Musik Festival, 2009 (Symphony No. 9) and 2008 (Symphony No. 10)

DISC INFO:

Disc Title:     MAHLER SYMPHONIES 9 AND 10
Disc Size:      39,183,965,650 bytes
Protection:     AACS
BD-Java:        No
BDInfo:         0.5.8

PLAYLIST REPORT:

Name:                   00003.MPLS
Length:                 1:57:45.858 (h:m:s.ms)
Size:                   30,867,173,376 bytes
Total Bitrate:          34.95 Mbps

VIDEO:

Codec                   Bitrate             Description    
-----                   -------             -----------    
MPEG-4 AVC Video        26933 kbps          1080i / 29.970 fps / 16:9 / High Profile 4.1

AUDIO:

Codec                           Language        Bitrate         Description    
-----                           --------        -------         -----------    
LPCM Audio                      Undetermined    2304 kbps       2.0 / 48 kHz / 2304 kbps / 24-bit
DTS-HD Master Audio             Undetermined    3906 kbps       5.1 / 48 kHz / 3906 kbps / 24-bit (DTS Core: 5.1 / 48 kHz / 1509 kbps / 24-bit)

FILES:

Name            Time In         Length          Size            Total Bitrate  
----            -------         ------          ----            -------------  
00007.M2TS      0:00:00.000     1:27:03.918     22,898,970,624  35,068          
00016.M2TS      1:27:03.918     0:30:23.855     7,958,556,672   34,909          
00006.M2TS      1:57:27.774     0:00:09.042     4,823,040       4,267          
00001.M2TS      1:57:36.816     0:00:09.042     4,823,040       4,267

Download:

http://subyshare.com/53ywqp4l7rhk/MAHLER.SYMPHONIES.9AND10.part01.rar.html
http://subyshare.com/ypz9x133uum6/MAHLER.SYMPHONIES.9AND10.part02.rar.html
http://subyshare.com/uxymbngxss4b/MAHLER.SYMPHONIES.9AND10.part03.rar.html
http://subyshare.com/9lpw6pd5t22q/MAHLER.SYMPHONIES.9AND10.part04.rar.html
http://subyshare.com/pro74ei14lpx/MAHLER.SYMPHONIES.9AND10.part05.rar.html
http://subyshare.com/dqzpdk52ezsw/MAHLER.SYMPHONIES.9AND10.part06.rar.html
http://subyshare.com/lcwsk84uq8nr/MAHLER.SYMPHONIES.9AND10.part07.rar.html
http://subyshare.com/wkf0i0py70gb/MAHLER.SYMPHONIES.9AND10.part08.rar.html
http://subyshare.com/cncbiq9h1b57/MAHLER.SYMPHONIES.9AND10.part09.rar.html
http://subyshare.com/2jqxavu1cg45/MAHLER.SYMPHONIES.9AND10.part10.rar.html
http://subyshare.com/3mio0w9q0b6p/MAHLER.SYMPHONIES.9AND10.part11.rar.html
http://subyshare.com/zvlrjmk71cbh/MAHLER.SYMPHONIES.9AND10.part12.rar.html
http://subyshare.com/bvu56iawt21q/MAHLER.SYMPHONIES.9AND10.part13.rar.html
http://subyshare.com/kscedefz15pi/MAHLER.SYMPHONIES.9AND10.part14.rar.html
http://subyshare.com/mgpmji9tad26/MAHLER.SYMPHONIES.9AND10.part15.rar.html
http://subyshare.com/ukkqpg09vkwa/MAHLER.SYMPHONIES.9AND10.part16.rar.html
http://subyshare.com/je6yamjf7nd0/MAHLER.SYMPHONIES.9AND10.part17.rar.html
http://subyshare.com/ks3a2ugzsino/MAHLER.SYMPHONIES.9AND10.part18.rar.html
http://subyshare.com/xunwqn3348gk/MAHLER.SYMPHONIES.9AND10.part19.rar.html
http://subyshare.com/vdjokce676m0/MAHLER.SYMPHONIES.9AND10.part20.rar.html
http://subyshare.com/9ecmrrgvu62q/MAHLER.SYMPHONIES.9AND10.part21.rar.html
http://subyshare.com/7rk6gpmnuv3i/MAHLER.SYMPHONIES.9AND10.part22.rar.html

or

http://usenet.fun/c05kvoqlw0sq/MAHLER.SYMPHONIES.9AND10.part01.rar
http://usenet.fun/kpvc9g5thu1m/MAHLER.SYMPHONIES.9AND10.part02.rar
http://usenet.fun/m716wnzwcrnz/MAHLER.SYMPHONIES.9AND10.part03.rar
http://usenet.fun/pf5rcl8kw882/MAHLER.SYMPHONIES.9AND10.part04.rar
http://usenet.fun/kmrl06yybtvy/MAHLER.SYMPHONIES.9AND10.part05.rar
http://usenet.fun/l1ww4lbiriiv/MAHLER.SYMPHONIES.9AND10.part06.rar
http://usenet.fun/zgjvmd26963d/MAHLER.SYMPHONIES.9AND10.part07.rar
http://usenet.fun/pu90evx09qaf/MAHLER.SYMPHONIES.9AND10.part08.rar
http://usenet.fun/cc5xbg5gmdyq/MAHLER.SYMPHONIES.9AND10.part09.rar
http://usenet.fun/8pgbcuv0vc75/MAHLER.SYMPHONIES.9AND10.part10.rar
http://usenet.fun/0tsqcbcmc7y7/MAHLER.SYMPHONIES.9AND10.part11.rar
http://usenet.fun/jpujnytuzhzf/MAHLER.SYMPHONIES.9AND10.part12.rar
http://usenet.fun/q59ik6gtbrvy/MAHLER.SYMPHONIES.9AND10.part13.rar
http://usenet.fun/ru1d3mti0kwn/MAHLER.SYMPHONIES.9AND10.part14.rar
http://usenet.fun/kk10ig9j016s/MAHLER.SYMPHONIES.9AND10.part15.rar
http://usenet.fun/rya8ifst1dz2/MAHLER.SYMPHONIES.9AND10.part16.rar
http://usenet.fun/6pez5pofim7i/MAHLER.SYMPHONIES.9AND10.part17.rar
http://usenet.fun/4iscc5hq9za9/MAHLER.SYMPHONIES.9AND10.part18.rar
http://usenet.fun/rm8ncraczxu6/MAHLER.SYMPHONIES.9AND10.part19.rar
http://usenet.fun/4y0o6dndcx9i/MAHLER.SYMPHONIES.9AND10.part20.rar
http://usenet.fun/m23iqzvmgokz/MAHLER.SYMPHONIES.9AND10.part21.rar
http://usenet.fun/19dcte81byki/MAHLER.SYMPHONIES.9AND10.part22.rar

%d bloggers like this: