Skip to content

Europakonzert 2017 from Cyprus – Weber, Koncz, Dvorak, Brahms – Andreas Ottensamer, Berliner Philharmoniker, Mariss Jansons (2017) Blu-ray 1080i AVC DTS-HD MA 5.0

Сomposer: Carl Maria von Weber (1786-1826), Stephan Koncz (b.1984), Antonín Dvořák (1841-1904), Johannes Brahms (1833-1897)
Title: Europakonzert 2017 from Cyprus
Release Date: 2017
Genre: Classical
Director: Henning Kasten
Conductor: Mariss Jansons
Artist: Andreas Ottensamer, clarinet; Berliner Philharmoniker

Production/Label: EuroArts Music International
Duration: 01:28:53
Quality: Blu-ray
Container: BDMV
Video codec: AVC
Audio codec: DTS, PCM
Video: MPEG-4 AVC 19910 kbps / 1920*1080i / 29.970 fps / 16:9 / High Profile 4.1 /
Audio#1: DTS-HD MA 5.0 / 96 kHz / 6775 kbps / 24-bit (DTS Core: 5.0 / 48 kHz / 1509 kbps / 24-bit)
Audio#2: LPCM 2.0 / 96 kHz / 4608 kbps / 24-bit
Size: 20,67 GB

• The 1,500 people who attended the sold-out concert at the square of the Paphos medieval castle gave standing ovations, seemingly not very bothered by the hot midday sun at the unsheltered venue.
• The Berliner Philharmoniker celebrate their founding day (May 1st, 1892) in a European city of cultural significance every year.
• This year’s concert takes the orchestra to one of the most mythical places in its history: Paphos, birthplace of Aphrodite.
• Latvian conductor Mariss Jansons returns to the Berliner Philharmoniker’s rostrum once again, while the orchestra’s principal clarinettist Andreas Ottensamer is the solo clarinettist for the 2017 Europakonzert.
• In front of the city’s Byzantine castle, the Berliner Philharmoniker play works by Carl Maria von Weber and Antonín Dvorák , which impress with their lyrical zest and warm colours.
• Andreas Ottensamer performs his interpretation of von Weber‘s Clarinet Concerto, which is known as a much more elaborate composition than Mozart‘s clarinet concertos owing to the cooperation between the composer and clarinettist Joseph Heinrich Bärmann.
• The concert concludes with Dvorák‘s 8th Symphony, an unusually optimistic and light-hearted composition.
• The Blu-ray disc comes in high resolution audio: 96kHz/24 bit

Tracklist:
• Live from Paphos, Cyprus, 1 May 2017
1. Opening 00:00:35
  Carl Maria von Weber (1786-1826)
2. Overture to the opera “Oberon” 10:52
  Concerto for Clarinet and Orchestra No 1 in f minor Op. 73
3. Allegro 08:28
4. Adagio ma non troppo 06:34
5. Rondo 07:35
  Stephan Koncz (b.1984)
6. Hungarian Fantasy on Themes by Carl Maria von Weber 09:21
  Antonín Dvořák (1841-1904)
  Symphony No 8 in G Major Op. 88
7. Allegro con brio 10:55
8. Adagio 10:56
9. Allegretto grazioso 06:54
10. Finale: Allegro ma non troppo 11:50
  Johannes Brahms (1833-1897)
11. Hungarian Dance No 5 in G minor 02:55
12. Applause & End Credits 01:52

http://thumbs2.imagebam.com/d4/c8/15/b4a8b9641545653.jpg http://thumbs2.imagebam.com/99/40/a8/797f0a641545663.jpg http://thumbs2.imagebam.com/6b/78/de/511d57641545673.jpg http://thumbs2.imagebam.com/bb/5b/5e/1574ea641545713.jpg http://thumbs2.imagebam.com/8d/c5/00/c52366641545723.jpg

DISC INFO:

Disc Title:     EPK_2017
Disc Size:      22,194,563,107 bytes
Protection:     AACS
BD-Java:        No
BDInfo:         0.5.8.7 (compatible layout created by DVDFab 10.0.6.4)

PLAYLIST REPORT:

Name:                   00000.MPLS  
Length:                 1:28:53.861 (h:m:s.ms)
Size:                   22,041,372,672 bytes
Total Bitrate:          33.06 Mbps

VIDEO:

Codec                   Bitrate             Description    
-----                   -------             -----------    
MPEG-4 AVC Video        19910 kbps          1080i / 29.970 fps / 16:9 / High Profile 4.1 /

AUDIO:

Codec                           Language        Bitrate         Description    
-----                           --------        -------         -----------    
LPCM Audio                      Undetermined    4608 kbps       2.0 / 96 kHz / 4608 kbps / 24-bit
DTS-HD Master Audio             Undetermined    6775 kbps       5.0 / 96 kHz / 6775 kbps / 24-bit (DTS Core: 5.0 / 48 kHz / 1509 kbps / 24-bit)

FILES:

Name            Time In         Length          Size            Total Bitrate  
----            -------         ------          ----            -------------  
00000.M2TS      0:00:00.000     1:28:45.486     22,039,265,280  33,107 kbps    
00008.M2TS      1:28:45.486     0:00:08.041     2,095,104       2,084 kbps      
00007.M2TS      1:28:53.528     0:00:00.333     12,288          294 kbps     

Blu-Ray Disc

https://subyshare.com/cvm7jpx0pt2f/EPK_2017.part01.rar.html
https://subyshare.com/6fba6xyfii2z/EPK_2017.part02.rar.html
https://subyshare.com/pfwqdlt4r9pi/EPK_2017.part03.rar.html
https://subyshare.com/qk8yf3gycohn/EPK_2017.part04.rar.html
https://subyshare.com/n098izpyeach/EPK_2017.part05.rar.html
https://subyshare.com/k819vayr07b9/EPK_2017.part06.rar.html
https://subyshare.com/fmas6pvnd2je/EPK_2017.part07.rar.html
https://subyshare.com/pgjv7u0l7j19/EPK_2017.part08.rar.html
https://subyshare.com/4tq0u922mwep/EPK_2017.part09.rar.html
https://subyshare.com/di06f8w1oln3/EPK_2017.part10.rar.html
https://subyshare.com/w1u1xz97rzp1/EPK_2017.part11.rar.html
https://subyshare.com/uq5wt225ytaa/EPK_2017.part12.rar.html
https://subyshare.com/mdi3i3o4yc9t/EPK_2017.part13.rar.html
https://subyshare.com/47jfiers658s/EPK_2017.part14.rar.html

Winrar Recovery Volumes
https://subyshare.com/qad9tqf22e63/EPK_2017.part01.rev.html
https://subyshare.com/p7z26f4kfekp/EPK_2017.part02.rev.html

%d bloggers like this: