Skip to content

Barclay James Harvest ‎- Octoberon (1976) (German Pressing) (24-Bit/96Khz + 16-Bit/44.1Khz) (Vinyl Rip)

Barclay James Harvest ‎– Octoberon
Vinyl | LOG | CUE | FLAC | Tags | Full LP Cover (1:1)
24bit/96kHz: 955mb – 16bit/44kHz: 280mb
Genre: Progressive-Rock | Label: Polydor / 2383 407 | German Pressing | Release: 1976

For me this album is fantastic, a summa of Barclay James Harvest kind of music. It opens with a classic with an optimistic note from the pen of Les Holroyd titled “The World Goes On”. This is the first use of the orchestra from Moonwater (1972). Other two Holroyd’s’ contributions are Believe In Me and Rock’n’Roll Star which is a beautiful live classic for the band, with an obvious reference to the Byrds “So You Wanna Be A Rock’n’Roll Star”. It was also compared to the Eagles “One Of These Nights”. John Lees’ pieces are all very good, expecially the explosive Polk Street Rag, inspired by the porno film Deep Throat, starring Linda Lovelace (Polk Street is in San Francisco’s red light district). The final song Suicide? is simply one of the best songs for John Lees. This beautiful ballad, in predominant acoustic guitar, ends with sounds effect of the death of the character of the songs, falling from the top of a building. The question, marked in the titled, underline the central point: did he jump or was he pushed?. Stuart “Wooly” Wolsteholme composition is the epic of ancient Egypt “Ra” wich demonstrates the high synphonic ideas of this great composer.
Octoberon (only n.19 in the U.K. charts) is a title that combine the fact that is the eight album for Barclay James Harvest and the shakespearen character Oberon.
I highly recommend this pearl to all the people who love melodic/symphonic/prog.
progarchives.com

 

Side A
1. Rock’N’Roll Star (5:17)
2. Polk Street Rag (5:37)
3. Believe In Me (4:21)
4. Suicide? (7:56)
Side B
5. The World Goes On (6:27)
6. May Day (7:57)
7. Ra (7:18)

Analyzed folder: Barclay James Harvest ‎– Octoberon (LP)
----------------------------------------------------------------------------------------------
DR Peak RMS Filename
----------------------------------------------------------------------------------------------
DR15 -1.49 dB -20.78 dB 01 Barclay James Harvest - LADO 1- Rock'n Roll Star.wav
DR15 -1.93 dB -19.15 dB 02 Barclay James Harvest - Polk Street Rag.wav
DR14 -2.86 dB -19.85 dB 03 Barclay James Harvest - Believe In Me.wav
DR14 -2.34 dB -22.54 dB 04 Barclay James Harvest - Suicide.wav
DR14 -1.87 dB -19.30 dB 05 Barclay James Harvest - LADO 2- The World Goes On.wav
DR14 -2.41 dB -18.84 dB 06 Barclay James Harvest - May Day.wav
DR13 -4.62 dB -23.33 dB 07 Barclay James Harvest - Ra.wav
----------------------------------------------------------------------------------------------
Number of files: 7
Official DR value: DR14

Download:

http://usenet.fun/273300341c06/BarclayJamesHarves-OctoberonLP-DVD.part1.rar (24/96)
http://usenet.fun/15eb37f3bd6e/BarclayJamesHarvest-OctoberonLP-DVD.part2.rar

http://usenet.fun/2904a97d9de2/BarclayJamesHarvest-OctoberonLP-CD.rar (16/44)

or

http://usenet.fun/d0hs3gd9jhno/BarclayJamesHarvest-OctoberonLP-DVD.part1.rar.html
http://usenet.fun/3ehq5nxlhkzn/BarclayJamesHarvest-OctoberonLP-DVD.part2.rar.html

http://usenet.fun/ya4kzlsd2cs3/BarclayJamesHarvest-OctoberonLP-CD.rar.html

%d bloggers like this: