Skip to content

Ariana Grande – Thank U, Next (2018) [PCM ProRes 1080p]

Title: Ariana Grande: Thank U, Next
Year: 2018
Duration: 00:05:35
Genre: Pop
Directed by: Hannah Lux Davis
Starring: Ariana Grande / Colleen Ballinger / Jonathan Bennett / Matt Bennett / Stefanie Drummond
IMDB Rating: 7.3
IMDB URL: http://www.imdb.com/title/tt9364124/

Quality: Master
Video resolution / scan: 1080p
Container: MOV
Video Codec: Apple ProRes
Audio Codec: PCM
Video: APCH 1920×1080 23.976fps 166 Mb / s
Audio: PCM 48000Hz stereo 2304kbps
Size: 6,55 GB

Set against the backdrop of four coming of age movies from the 2000s, Ariana Grande pays tribute to her failed relationships and reflects on how they helped her grow as a person.

General
Complete name                  : J:\Ariana Grande - Thank U, Next  (2018).mov
Format                         : MPEG-4
Format profile                 : QuickTime
Codec ID                       : qt   2005.03 (qt  )
File size                      : 6.55 GiB
Duration                       : 5 min 35 s
Overall bit rate mode          : Variable
Overall bit rate               : 168 Mb/s
Encoded date                   : UTC 2018-11-30 20:55:06
Tagged date                    : UTC 2018-11-30 21:00:11
Writing library                : Apple QuickTime

Video
ID                             : 1
Format                         : ProRes
Format version                 : Version 0
Format profile                 : 422 HQ
Codec ID                       : apch
Duration                       : 5 min 35 s
Bit rate mode                  : Variable
Bit rate                       : 166 Mb/s
Width                          : 1 920 pixels
Height                         : 1 080 pixels
Display aspect ratio           : 16:9
Frame rate mode                : Constant
Frame rate                     : 23.976 (24000/1001) FPS
Color space                    : YUV
Chroma subsampling             : 4:2:2
Scan type                      : Progressive
Bits/(Pixel*Frame)             : 3.332
Stream size                    : 6.46 GiB (99%)
Writing library                : arh0
Language                       : English
Encoded date                   : UTC 2018-11-30 20:55:06
Tagged date                    : UTC 2018-11-30 21:00:11
Color primaries                : BT.709
Transfer characteristics       : BT.709
Matrix coefficients            : BT.709

Audio
ID                             : 2
Format                         : PCM
Format settings                : Little / Signed
Codec ID                       : in24
Duration                       : 5 min 35 s
Bit rate mode                  : Constant
Bit rate                       : 2 304 kb/s
Channel(s)                     : 2 channels
Channel layout                 : L R
Sampling rate                  : 48.0 kHz
Bit depth                      : 24 bits
Stream size                    : 92.0 MiB (1%)
Language                       : English
Encoded date                   : UTC 2018-11-30 20:55:06
Tagged date                    : UTC 2018-11-30 21:00:12

Screenshots

pic pic pic pic pic pic pic pic pic pic pic pic

Download

https://subyshare.com/ce75ssi8y14z/mvabc.xyz_ArianaGrandeThankUNext2018.part1.rar.html
https://subyshare.com/1mzx3f9nq54i/mvabc.xyz_ArianaGrandeThankUNext2018.part2.rar.html
https://subyshare.com/vsg1dda6mcry/mvabc.xyz_ArianaGrandeThankUNext2018.part3.rar.html
https://subyshare.com/znhrse1r3q0b/mvabc.xyz_ArianaGrandeThankUNext2018.part4.rar.html
https://subyshare.com/s11ap4ngqtpn/mvabc.xyz_ArianaGrandeThankUNext2018.part5.rar.html

    Comments are closed, but trackbacks and pingbacks are open.

    %d bloggers like this: