Skip to content

Ariana Grande – Into You (2016) [PCM ProRes 1080p]

Title: Ariana Grande: Into You
Year: 2016
Length: 04:15
Genre: Pop
Directed by: Hannah Lux Davis
Starring: Don Benjamin / Jeremy Copeland / Ariana Grande
IMDB Rating: 6.9
IMDB URL: http://www.imdb.com/title/tt6454270/

Quality: Master
Video resolution / scan: 1080p
Container: MOV
Video Codec: Apple ProRes
Audio Codec: PCM
Video: APCH422HQ, 1920 * 1080p, 175 Mbps, 23.976 fps
Audio: LPCM, 1,536. Kbps, 48.0 KHz, 2 channels
Size: 5,24 GB

The music video begins with the title “Into You” on the screen with a desert background. Several shots of Grande are shown of her in the desert, while others show her riding on the back of a motorcycle with the guest star Don Benjamin. The video continues with them being together and then entering a motel titled “Honeymoon Inn”. Various shots show the two hanging out and being playful inside and out the motel. The video switches to Grande being in a party filled with other people and a man who may represent one of her ex-boyfriends or her husband. In the party, Grande is interested in other things but the man pulls her arm and she unwillingly smiles at the cameras. Grande and Benjamin, who is apparently one of the man’s bodyguards, make eye contact while Grande sees the other man kiss and hug other women. Grande then gets up and leaves with Benjamin following behind her. They then stay together after the party and the video concludes with Grande riding on the back of a motorcycle with Benjamin as shown in the beginning.

General
Complete name                  : C:\Users\Admin\Desktop\Ariana Grande - Into You (PCM-Prores-1080p).mov
Format                         : MPEG-4
Format profile                 : QuickTime
Codec ID                       : qt   2005.03 (qt  )
File size                      : 5.24 GiB
Duration                       : 4 min 14 s
Overall bit rate mode          : Variable
Overall bit rate               : 177 Mb/s
Encoded date                   : UTC 2016-05-23 12:44:38
Tagged date                    : UTC 2016-05-23 12:45:50
Writing library                : Apple QuickTime
Media/UUID                     : 902BCB6A-3742-4712-B38F-7B7BA6DEBC47

Video
ID                             : 1
Format                         : ProRes
Format version                 : Version 0
Format profile                 : 422 HQ
Codec ID                       : apch
Duration                       : 4 min 14 s
Bit rate mode                  : Variable
Bit rate                       : 175 Mb/s
Width                          : 1 920 pixels
Clean aperture width           : 1 920 pixels
Height                         : 1 080 pixels
Clean aperture height          : 1 080 pixels
Display aspect ratio           : 16:9
Clean aperture display aspect  : 16:9
Frame rate mode                : Constant
Frame rate                     : 23.976 (23976/1000) FPS
Color space                    : YUV
Chroma subsampling             : 4:2:2
Scan type                      : Progressive
Bits/(Pixel*Frame)             : 3.523
Stream size                    : 5.20 GiB (99%)
Writing library                : Apple
Language                       : English
Encoded date                   : UTC 2016-05-23 12:44:38
Tagged date                    : UTC 2016-05-23 12:45:50
Color primaries                : BT.709
Transfer characteristics       : BT.709
Matrix coefficients            : BT.709

Audio
ID                             : 2
Format                         : PCM
Format settings                : Little / Signed
Codec ID                       : sowt
Duration                       : 4 min 14 s
Bit rate mode                  : Constant
Bit rate                       : 1 536 kb/s
Channel(s)                     : 2 channels
Channel layout                 : L R
Sampling rate                  : 48.0 kHz
Bit depth                      : 16 bits
Stream size                    : 46.7 MiB (1%)
Language                       : English
Encoded date                   : UTC 2016-05-23 12:44:38
Tagged date                    : UTC 2016-05-23 12:45:50

Text #1
ID                             : 4-CC1
Format                         : EIA-608
Muxing mode                    : Final Cut / CDP
Codec ID                       : c708
Duration                       : 4 min 14 s
Bit rate mode                  : Constant
Stream size                    : 0.00 Byte (0%)
Language                       : English
Forced                         : No
Encoded date                   : UTC 2016-05-23 12:44:38
Tagged date                    : UTC 2016-05-23 12:45:50
CaptionServiceName             : CC1

Text #2
ID                             : 4-1
Format                         : EIA-708
Muxing mode                    : Final Cut / CDP
Codec ID                       : c708
Duration                       : 4 min 14 s
Bit rate mode                  : Constant
Stream size                    : 0.00 Byte (0%)
Language                       : English
Forced                         : No
Encoded date                   : UTC 2016-05-23 12:44:38
Tagged date                    : UTC 2016-05-23 12:45:50

Other
ID                             : 3
Type                           : Time code
Format                         : QuickTime TC
Duration                       : 4 min 14 s
Time code of first frame       : 01:00:00:00
Time code, striped             : Yes
Language                       : English
Encoded date                   : UTC 2016-05-23 12:44:38
Tagged date                    : UTC 2016-05-23 12:45:50

Screenshots

pic pic pic pic

Download

https://subyshare.com/0b8mofgetsox/mvabc.xyz_ArianaGrandeInt0Y0u.part1.rar.html
https://subyshare.com/7guh2fuvbrnh/mvabc.xyz_ArianaGrandeInt0Y0u.part2.rar.html
https://subyshare.com/1xjgwz9xjhci/mvabc.xyz_ArianaGrandeInt0Y0u.part3.rar.html
https://subyshare.com/9ygwl5q7l0sq/mvabc.xyz_ArianaGrandeInt0Y0u.part4.rar.html

%d bloggers like this: