Skip to content

Ariana Grande – Break Up With Your Girlfriend, I’m Bored (2019) [PCM ProRes 1080p]

Title: Ariana Grande: Break Up with Your Girlfriend, I’m Bored
Year: 2019
Length: 00:03:29
Genre: Pop
Directed by: Hannah Lux Davis
Starring: Natalia Berger / Jeremy Copeland / Ariana Grande / Charles Melton / Ariel Yasmine
IMDB Rating: 6.7
IMDB URL: http://www.imdb.com/title/tt9743118/

Quality: Master
Video resolution / scan: 1080p
Container: MOV
Video Codec: Apple ProRes
Audio Codec: PCM
Video: APCH 1920×1080 23.976fps 168 Mb / s
Audio: PCM 48000Hz stereo 2304kbps
Size: 4,13 GB

The video begins with Grande, wearing a blonde wig, arriving in a club. She sees Melton and his girlfriend, Yasmine, who looks similar to Grande herself, wearing her signature ponytail, arriving at the club and dancing together. The couple notice Grande staring at them and invite her to dance with them, which she proceeds to do so intimately. Later that night, the couple share drinks with her at the bar and invite her to their house party the following night, although Grande is jealous of their romance. The next night, Grande arrives at Melton and Yasmine’s house party, wearing her normal hairstyle and a black outfit similar to Yasmine’s, startling Melton. She follows the couple around the house, with both Melton and Yasmine staring at her separately without the other knowing, and watches as the couple kiss in front of her poolside and at the lounge. At one point, Grande stares at herself in the bathroom mirror, only for Yasmine to appear instead of her own reflection. By the video’s end, Melton and Yasmine are together at one side of the pool while Grande is alone at the other side watching them. She proceeds to lean towards Melton and seems to make a move on him, but suddenly turns towards Yasmine and they lean in to kiss (though the video cuts to black before they do). Written by TheAmericanIdol

General
Complete name                  : F:\Ariana Grande - Break Up With Your Girlfriend, I’m Bored 2019.mov
Format                         : MPEG-4
Format profile                 : QuickTime
Codec ID                       : qt   2005.03 (qt  )
File size                      : 4.13 GiB
Duration                       : 3 min 28 s
Overall bit rate mode          : Variable
Overall bit rate               : 170 Mb/s
Encoded date                   : UTC 2019-02-08 05:09:00
Tagged date                    : UTC 2019-02-08 05:12:07
Writing library                : Apple QuickTime

Video
ID                             : 1
Format                         : ProRes
Format version                 : Version 0
Format profile                 : 422 HQ
Codec ID                       : apch
Duration                       : 3 min 28 s
Bit rate mode                  : Variable
Bit rate                       : 168 Mb/s
Width                          : 1 920 pixels
Height                         : 1 080 pixels
Display aspect ratio           : 16:9
Frame rate mode                : Constant
Frame rate                     : 23.976 (24000/1001) FPS
Color space                    : YUV
Chroma subsampling             : 4:2:2
Scan type                      : Progressive
Bits/(Pixel*Frame)             : 3.373
Stream size                    : 4.08 GiB (99%)
Writing library                : arh0
Language                       : English
Encoded date                   : UTC 2019-02-08 05:09:00
Tagged date                    : UTC 2019-02-08 05:12:07
Color primaries                : BT.709
Transfer characteristics       : BT.709
Matrix coefficients            : BT.709

Audio
ID                             : 2
Format                         : PCM
Format settings                : Little / Signed
Codec ID                       : in24
Duration                       : 3 min 28 s
Bit rate mode                  : Constant
Bit rate                       : 2 304 kb/s
Channel(s)                     : 2 channels
Channel layout                 : L R
Sampling rate                  : 48.0 kHz
Bit depth                      : 24 bits
Stream size                    : 57.4 MiB (1%)
Language                       : English
Encoded date                   : UTC 2019-02-08 05:09:00
Tagged date                    : UTC 2019-02-08 05:12:08

Screenshots

pic pic pic pic pic pic pic pic pic pic pic pic

Download

https://subyshare.com/wtwsf1zf0ivo/mvabc.xyz_ArianaGrandeBreakUpWithY0urGirlfriendImB0red2019.part1.rar.html
https://subyshare.com/1ac03rf9q8iz/mvabc.xyz_ArianaGrandeBreakUpWithY0urGirlfriendImB0red2019.part2.rar.html
https://subyshare.com/jrf9li1juau0/mvabc.xyz_ArianaGrandeBreakUpWithY0urGirlfriendImB0red2019.part3.rar.html

    Comments are closed, but trackbacks and pingbacks are open.

    %d bloggers like this: