Skip to content

A John Williams Celebration: Opening Gala Concert From Walt Disney Concert Hall (2014) Blu-ray 1080i AVC DTS-HD 5.1

Title: A John Williams Celebration: Opening Gala Concert From Walt Disney Concert Hall
Released: 2014
Genre: Classical, Orchestral, Film Score, Jazz, Gala Concert
Directed by: Michael Beyer
Conductor: Gustavo Dudamel
Artist: Itzhak Perlman (violin), Dan Higgins (saxophone), Glenn Paulson (vibraphone), Mike Valerio (double bass), US Army Herald Trumpets, Los Angeles Children’s Chorus, Los Angeles Philharmonic Orchestra

Production/Label: C Major Entertainment
Duration: 01:25:13
Quality: Blu-ray
Container: BDMV
Video codec: AVC
Audio codec: DTS, PCM
Video: MPEG-4 AVC 29908 kbps / 1920*1080i / 29.970 fps / 16:9 / High Profile 4.1
Audio#1: DTS-HD MA 5.1 / 48 kHz / 3808 kbps / 24-bit (DTS Core: 5.1 / 48 kHz / 1509 kbps / 24-bit)
Audio#2: LPCM 2.0 / 48 kHz / 2304 kbps / 24-bit
Subtitles: German, French, Spanish, Japanese

For the 2014/15 Opening Night Concert and Gala, the Los Angeles Philharmonic paid loving tribute to composer John Williams, one of the most popular and successful American composers of the modern age and long a champion and close friend of the orchestra. Gustavo Dudamel, an awestruck fan of the musical icon, led the orchestra in a cross-section of Maestro Williams’ matchless canon. The concert features Itzhak Perlman with a very special musical performance of pieces from Schindler’s List as well as the cadenza and variations from Fiddler On The Roof. Jazz elements fill the air during Escapades from Catch Me If You Can, and may the force be with you during the iconic tunes from Star Wars. The Blu-ray bonus features include interviews with the main protagonists, including Gustavo Dudamel, John Williams, and Itzhak Perlman.
Recorded at Walt Disney Concert Hall, USA, 2014.

A JOHN WILLIAMS CELEBRATION
featuring works from:
– Olympic Fanfare
– Soundings
– Schindler’s List – theme
– Violin fantasy on Fiddler on the Roof
– Catch me if you can
– Star Wars – Suite
– Amistad
– Jaws (film score): main theme
– Star Wars Episode V: The Empire Strikes Back: The Imperial March
Itzhak Perlman, violin
Los Angeles Children’s Chorus
Los Angeles Philharmonic Orchestra
Gustavo Dudamel
, conductor
Dan Higgins, saxophone
Glenn Paulson, vibraphone
Mike Valerio, double bass
US Army Herald Trumpets
Netia Jones
, director and video designer
Recorded at Walt Disney Concert Hall, USA, 2014
Bonus:
• Interviews
– Gustavo Dudamel and John Williams (1080i; 13:44)
– Itzhak Perlman (1080i; 3:43)

DISC INFO:

Disc Title:     A JOHN WILLIAMS CELEBRATION
Disc Size:      30,607,760,259 bytes
Protection:     AACS
BD-Java:        No
BDInfo:         0.5.8

PLAYLIST REPORT:

Name:                   00003.MPLS
Length:                 1:25:13.842 (h:m:s.ms)
Size:                   24,260,321,280 bytes
Total Bitrate:          37.95 Mbps

VIDEO:

Codec                   Bitrate             Description    
-----                   -------             -----------    
MPEG-4 AVC Video        29908 kbps          1080i / 29.970 fps / 16:9 / High Profile 4.1

AUDIO:

Codec                           Language        Bitrate         Description    
-----                           --------        -------         -----------    
LPCM Audio                      Undetermined    2304 kbps       2.0 / 48 kHz / 2304 kbps / 24-bit
DTS-HD Master Audio             Undetermined    3808 kbps       5.1 / 48 kHz / 3808 kbps / 24-bit (DTS Core: 5.1 / 48 kHz / 1509 kbps / 24-bit)

SUBTITLES:

Codec                           Language        Bitrate         Description    
-----                           --------        -------         -----------    
Presentation Graphics           German          1.258 kbps                      
Presentation Graphics           French          1.041 kbps                      
Presentation Graphics           Spanish         1.079 kbps                      
Presentation Graphics           Japanese        0.765 kbps                      

FILES:

Name            Time In         Length          Size            Total Bitrate  
----            -------         ------          ----            -------------  
00007.M2TS      0:00:00.000     1:24:55.757     24,250,675,200  38,072          
00006.M2TS      1:24:55.757     0:00:09.042     4,823,040       4,267          
00001.M2TS      1:25:04.799     0:00:09.042     4,823,040       4,267

Download:

http://subyshare.com/ihfv3wyxul6c/AJOHNWILLIAMSCELEBRATION.part01.rar.html
http://subyshare.com/iz4qo9chic9y/AJOHNWILLIAMSCELEBRATION.part02.rar.html
http://subyshare.com/06whywldw6kg/AJOHNWILLIAMSCELEBRATION.part03.rar.html
http://subyshare.com/188iogy9eab1/AJOHNWILLIAMSCELEBRATION.part04.rar.html
http://subyshare.com/7u82f10o3xgv/AJOHNWILLIAMSCELEBRATION.part05.rar.html
http://subyshare.com/bbu5mhh8s6t4/AJOHNWILLIAMSCELEBRATION.part06.rar.html
http://subyshare.com/iy6bnj7iz9t2/AJOHNWILLIAMSCELEBRATION.part07.rar.html
http://subyshare.com/db4u4caveebl/AJOHNWILLIAMSCELEBRATION.part08.rar.html
http://subyshare.com/syt7qwnf06b6/AJOHNWILLIAMSCELEBRATION.part09.rar.html
http://subyshare.com/y22k8nd1e6s0/AJOHNWILLIAMSCELEBRATION.part10.rar.html
http://subyshare.com/4zjsyz074dru/AJOHNWILLIAMSCELEBRATION.part11.rar.html
http://subyshare.com/64qc4qc6kfi9/AJOHNWILLIAMSCELEBRATION.part12.rar.html
http://subyshare.com/3n8cmgyys0e5/AJOHNWILLIAMSCELEBRATION.part13.rar.html
http://subyshare.com/5hhew6nppmr6/AJOHNWILLIAMSCELEBRATION.part14.rar.html
http://subyshare.com/0jsxnrg1a8ir/AJOHNWILLIAMSCELEBRATION.part15.rar.html
http://subyshare.com/qpxpx25q07w2/AJOHNWILLIAMSCELEBRATION.part16.rar.html
http://subyshare.com/u12anuokqhy9/AJOHNWILLIAMSCELEBRATION.part17.rar.html
http://subyshare.com/h1a4wzi7w3ra/AJOHNWILLIAMSCELEBRATION.part18.rar.html
http://subyshare.com/d8hxkr38kupu/AJOHNWILLIAMSCELEBRATION.part19.rar.html
http://subyshare.com/h89gxz40r330/AJOHNWILLIAMSCELEBRATION.part20.rar.html

or

http://uptobox.com/lpk8ydsmpguu/AJOHNWILLIAMSCELEBRATION.part01.rar
http://uptobox.com/kecocjr13xui/AJOHNWILLIAMSCELEBRATION.part02.rar
http://uptobox.com/oo7qvw9zg7n5/AJOHNWILLIAMSCELEBRATION.part03.rar
http://uptobox.com/3xnvv7q6idkb/AJOHNWILLIAMSCELEBRATION.part04.rar
http://uptobox.com/kgcblto1hwd7/AJOHNWILLIAMSCELEBRATION.part05.rar
http://uptobox.com/3mhhfv0b4bpe/AJOHNWILLIAMSCELEBRATION.part06.rar
http://uptobox.com/jgo67vqpcxhr/AJOHNWILLIAMSCELEBRATION.part07.rar
http://uptobox.com/whucq3g99btt/AJOHNWILLIAMSCELEBRATION.part08.rar
http://uptobox.com/xl0oq392uiw2/AJOHNWILLIAMSCELEBRATION.part09.rar
http://uptobox.com/0dkrpirgqd8b/AJOHNWILLIAMSCELEBRATION.part10.rar
http://uptobox.com/2x0uc8hnnz15/AJOHNWILLIAMSCELEBRATION.part11.rar
http://uptobox.com/ci6tr3iulev5/AJOHNWILLIAMSCELEBRATION.part12.rar
http://uptobox.com/p3ypfm6k09u1/AJOHNWILLIAMSCELEBRATION.part13.rar
http://uptobox.com/qruga5dsrk3e/AJOHNWILLIAMSCELEBRATION.part15.rar
http://uptobox.com/esvm6uewrsfz/AJOHNWILLIAMSCELEBRATION.part16.rar
http://uptobox.com/5mwl9j9tlzbv/AJOHNWILLIAMSCELEBRATION.part17.rar
http://uptobox.com/cco788mddixz/AJOHNWILLIAMSCELEBRATION.part18.rar
http://uptobox.com/ojhspc9gg2uw/AJOHNWILLIAMSCELEBRATION.part19.rar
http://uptobox.com/h98ljqpewzj3/AJOHNWILLIAMSCELEBRATION.part20.rar

%d bloggers like this: